<?xml version="1.0" standalone="no"?>
<!DOCTYPE svg PUBLIC "-//W3C//DTD SVG 1.1//EN" "http://www.w3.org/Graphics/SVG/1.1/DTD/svg11.dtd" >
<svg xmlns="http://www.w3.org/2000/svg" xmlns:xlink="http://www.w3.org/1999/xlink" version="1.1">
<metadata>
Created by FontForge 20201107 at Wed Oct 23 16:32:54 2024
 By 
Copyright 2024 The Geist Project Authors (https://github.com/vercel/geist-font.git)
</metadata>
<defs>
<font id="Geist-Medium" horiz-adv-x="0" >
  <font-face 
    font-family="Geist Medium"
    font-weight="500"
    font-stretch="normal"
    units-per-em="1000"
    panose-1="0 0 0 0 0 0 0 0 0 0"
    ascent="800"
    descent="-200"
    x-height="532"
    cap-height="710"
    bbox="-200 -244 2338 946"
    underline-thickness="50"
    underline-position="-125"
    unicode-range="U+0020-FB02"
  />
<missing-glyph horiz-adv-x="600" 
d="M40 0v710h525v-710h-525zM73 36h459v638h-459v-638zM81 17l-21 29l464 647l21 -29zM524 17l-464 647l21 29l464 -647z" />
    <glyph glyph-name="fi" unicode="fi" horiz-adv-x="654" 
d="M129 0v566q0 66 37 105t116 39h94v-87h-80q-31 0 -46 -16.5t-15 -46.5v-560h-106zM55 439v86h313v-86h-313zM472 0v532h106v-532h-106zM471 609v106h110v-106h-110z" />
    <glyph glyph-name="fl" unicode="fl" horiz-adv-x="676" 
d="M129 0v566q0 66 37 105t116 39h94v-87h-80q-31 0 -46 -16.5t-15 -46.5v-560h-106zM55 439v86h313v-86h-313zM585 0q-52 0 -84 27t-32 86v597h106v-587q0 -18 9.5 -27t27.5 -9h42v-87h-69z" />
    <glyph glyph-name="f_f.liga" unicode="ff" horiz-adv-x="720" 
d="M129 0v566q0 66 37 105t116 39h94v-87h-80q-31 0 -46 -16.5t-15 -46.5v-560h-106zM55 439v86h313v-86h-313zM437 0v566q0 66 37 105t116 39h94v-87h-80q-31 0 -46 -16.5t-15 -46.5v-560h-106zM363 439v86h313v-86h-313z" />
    <glyph glyph-name="t_t.liga" unicode="tt" horiz-adv-x="732" 
d="M279 0q-76 0 -112 35t-36 109v513h106v-505q0 -37 16 -51t49 -14h76v-87h-99zM50 445v87h328v-87h-328zM602 0q-76 0 -112 35t-36 109v513h106v-505q0 -37 16 -51t49 -14h76v-87h-99zM373 445v87h328v-87h-328z" />
    <glyph glyph-name="hyphen_hyphen_hyphen_greater.liga" unicode="&#x2d;&#x2d;&#x2d;&#x3e;" horiz-adv-x="2400" 
d="M62 305v99h2190v-99h-2190zM1902 44l311 312l-310 310h125l310 -311l-311 -311h-125z" />
    <glyph glyph-name="hyphen_hyphen_greater.liga" unicode="&#x2d;&#x2d;&#x3e;" horiz-adv-x="1800" 
d="M1302 44l311 312l-310 310h125l310 -311l-311 -311h-125zM62 305v99h1615v-99h-1615z" />
    <glyph glyph-name="hyphen_greater.liga" unicode="&#x2d;&#x3e;" horiz-adv-x="1200" 
d="M702 44l311 312l-310 310h125l310 -311l-311 -311h-125zM62 305v99h1015v-99h-1015z" />
    <glyph glyph-name="less_hyphen.liga" unicode="&#x3c;&#x2d;" horiz-adv-x="1200" 
d="M498 44h-125l-311 311l310 311h125l-310 -310zM1138 305h-1015v99h1015v-99z" />
    <glyph glyph-name="less_hyphen_hyphen.liga" unicode="&#x3c;&#x2d;&#x2d;" horiz-adv-x="1800" 
d="M498 44h-125l-311 311l310 311h125l-310 -310zM1738 305h-1615v99h1615v-99z" />
    <glyph glyph-name="less_hyphen_hyphen_hyphen.liga" unicode="&#x3c;&#x2d;&#x2d;&#x2d;" horiz-adv-x="2400" 
d="M2338 305h-2190v99h2190v-99zM498 44h-125l-311 311l310 311h125l-310 -310z" />
    <glyph glyph-name="less_hyphen_greater.liga" unicode="&#x3c;&#x2d;&#x3e;" horiz-adv-x="1800" 
d="M1302 44l311 312l-310 310h125l310 -311l-311 -311h-125zM373 44l-311 311l310 311h125l-310 -310l311 -312h-125zM140 305v99h1505v-99h-1505z" />
    <glyph glyph-name=".notdef" horiz-adv-x="600" 
d="M40 0v710h525v-710h-525zM73 36h459v638h-459v-638zM81 17l-21 29l464 647l21 -29zM524 17l-464 647l21 29l464 -647z" />
    <glyph glyph-name=".null" 
 />
    <glyph glyph-name="nonmarkingreturn" horiz-adv-x="333" 
 />
    <glyph glyph-name="space" unicode=" " horiz-adv-x="243" 
 />
    <glyph glyph-name="exclam" unicode="!" horiz-adv-x="228" 
d="M82 212q-4 35 -8 83.5t-7.5 99t-3.5 90.5v225h108v-225q0 -40 -3 -90.5t-7.5 -99t-7.5 -83.5h-71zM49 0v126h130v-126h-130z" />
    <glyph glyph-name="quotedbl" unicode="&#x22;" horiz-adv-x="361" 
d="M64 440l-20 189v81h98l-6 -270h-72zM225 440l-7 270h99v-81l-21 -189h-71z" />
    <glyph glyph-name="numbersign" unicode="#" horiz-adv-x="515" 
d="M253 0l124 710h94l-125 -710h-93zM-6 186l14 86h469l-13 -86h-470zM41 0l124 710h94l-125 -710h-93zM34 434l13 86h469l-13 -86h-469z" />
    <glyph glyph-name="dollar" unicode="$" horiz-adv-x="643" 
d="M290 -90v890h76v-890h-76zM336 -14q-83 0 -144 30.5t-96.5 84.5t-41.5 125l109 6q6 -48 28 -81.5t58.5 -51t88.5 -17.5q45 0 77 11.5t48.5 33.5t16.5 55q0 30 -14 52.5t-54 42t-117 37.5q-83 20 -133 45t-71.5 61.5t-21.5 91.5q0 59 29 104.5t82.5 71t128.5 25.5
q80 0 136.5 -29t89.5 -80t41 -117l-109 -6q-5 39 -24.5 70t-53.5 48.5t-82 17.5q-60 0 -95 -28t-35 -74q0 -30 14.5 -50t51 -35t104.5 -31q90 -21 143 -50.5t76 -69.5t23 -91q0 -62 -32 -107.5t-89 -70t-132 -24.5z" />
    <glyph glyph-name="percent" unicode="%" horiz-adv-x="810" 
d="M200 366q-69 0 -113.5 45t-44.5 131q0 87 44.5 131.5t113.5 44.5t113 -44.5t44 -131.5q0 -86 -44 -131t-113 -45zM200 433q38 0 57 28t19 81t-19 81t-57 28q-37 0 -56.5 -28t-19.5 -81t19.5 -81t56.5 -28zM610 -8q-68 0 -113 45t-45 131q0 87 45 131.5t113 44.5
q70 0 114 -44.5t44 -131.5q0 -86 -44 -131t-114 -45zM610 59q38 0 57 28t19 81t-19 81t-57 28q-37 0 -56.5 -28t-19.5 -81t19.5 -81t56.5 -28zM121 0l484 710h84l-484 -710h-84z" />
    <glyph glyph-name="ampersand" unicode="&#x26;" horiz-adv-x="650" 
d="M270 -16q-109 0 -170 49.5t-61 140.5q0 46 13.5 82t44.5 68.5t84 67.5q-23 29 -39 54.5t-24.5 52t-8.5 57.5q0 79 49.5 124.5t137.5 45.5q59 0 100 -19.5t62 -55t21 -83.5q0 -59 -35.5 -104t-114.5 -95l145 -184q33 45 33 136l107 -10q-2 -59 -21.5 -114t-50.5 -91
l89 -106h-126l-33 40q-30 -25 -81.5 -40.5t-120.5 -15.5zM281 81q45 0 75 10t46 26l-161 201q-48 -33 -69 -64.5t-21 -73.5q0 -45 31.5 -72t98.5 -27zM273 439q34 21 55 39.5t30 38.5t9 43q0 32 -18.5 49.5t-51.5 17.5q-36 0 -56.5 -19t-20.5 -54q0 -18 5 -35.5t16.5 -36.5
t31.5 -43z" />
    <glyph glyph-name="quotesingle" unicode="'" horiz-adv-x="186" 
d="M60 440l-16 189v81h98v-81l-15 -189h-67z" />
    <glyph glyph-name="parenleft" unicode="(" horiz-adv-x="290" 
d="M182 -110q-138 210 -138 430q0 221 138 430h94q-125 -216 -125 -430q0 -107 31.5 -214.5t93.5 -215.5h-94z" />
    <glyph glyph-name="parenright" unicode=")" horiz-adv-x="290" 
d="M108 -110h-94q62 108 93.5 215.5t31.5 214.5q0 214 -125 430h94q138 -209 138 -430q0 -220 -138 -430z" />
    <glyph glyph-name="asterisk" unicode="*" horiz-adv-x="427" 
d="M153 376l-61 37l64 97h-114v76l114 -1l-64 97l61 38l61 -102l62 102l60 -38l-64 -97l114 1v-76h-114l64 -97l-60 -37l-62 101z" />
    <glyph glyph-name="plus" unicode="+" horiz-adv-x="562" 
d="M235 51v482h92v-482h-92zM40 246v92h482v-92h-482z" />
    <glyph glyph-name="comma" unicode="," horiz-adv-x="213" 
d="M47 -157l50 157h-55v126h129v-111l-63 -172h-61z" />
    <glyph glyph-name="hyphen" unicode="-" horiz-adv-x="418" 
d="M42 245v93h335v-93h-335z" />
    <glyph glyph-name="period" unicode="." horiz-adv-x="213" 
d="M42 0v126h129v-126h-129z" />
    <glyph glyph-name="slash" unicode="/" horiz-adv-x="494" 
d="M37 -110l296 860h102l-295 -860h-103z" />
    <glyph glyph-name="zero" unicode="0" horiz-adv-x="675" 
d="M337 -16q-88 0 -153 45t-100 128t-35 197t35.5 197.5t100 129t152.5 45.5q89 0 153.5 -45.5t100 -128.5t35.5 -198q0 -114 -35 -197t-100 -128t-154 -45zM337 83q85 0 131 70t46 201q0 88 -20.5 149t-60 92.5t-96.5 31.5q-56 0 -95.5 -31.5t-60 -92.5t-20.5 -149
q0 -131 46 -201t130 -70z" />
    <glyph glyph-name="one" unicode="1" horiz-adv-x="406" 
d="M189 0v506h-150v87h61q40 0 65 10.5t36 36t11 70.5h85v-710h-108z" />
    <glyph glyph-name="two" unicode="2" horiz-adv-x="630" 
d="M59 0q0 80 24 143t82 117t160 108q49 25 78.5 46.5t42.5 44.5t13 56q0 34 -14.5 58.5t-42.5 39t-71 14.5q-68 0 -107.5 -36.5t-49.5 -104.5l-112 7q12 107 81.5 170t187.5 63q76 0 129.5 -26.5t82 -73.5t28.5 -109q0 -54 -18 -93t-60 -72.5t-114 -71.5
q-92 -49 -139 -96.5t-50 -84.5h381v-99h-512z" />
    <glyph glyph-name="three" unicode="3" horiz-adv-x="625" 
d="M309 -16q-123 0 -189.5 57t-71.5 150l111 6q6 -61 46.5 -87.5t103.5 -26.5q42 0 77.5 11.5t57 38t21.5 69.5q0 64 -43 94.5t-114 30.5h-59v94h59q57 0 95 23t38 80q0 50 -32 76.5t-98 26.5q-64 0 -97 -25t-39 -68l-111 6q10 84 73.5 135t173.5 51q76 0 130 -23.5
t83 -67.5t29 -103q0 -65 -41.5 -106t-121.5 -56v18q87 -11 137 -61.5t50 -128.5q0 -67 -34 -115.5t-94 -73.5t-140 -25z" />
    <glyph glyph-name="four" unicode="4" horiz-adv-x="629" 
d="M386 0v148h-358v92l345 470h121v-464h87v-98h-87v-148h-108zM151 246h235v314z" />
    <glyph glyph-name="five" unicode="5" horiz-adv-x="641" 
d="M319 -16q-79 0 -135 25.5t-88 71.5t-37 106l111 7q8 -56 47.5 -83.5t101.5 -27.5q70 0 110.5 39t40.5 109q0 46 -18.5 79.5t-52.5 52t-81 18.5t-84 -20t-53 -55h-112l48 404h416v-99h-320l-30 -243l-17 15q17 30 43 49.5t60.5 30t73.5 10.5q72 0 125.5 -31t83.5 -86
t30 -125q0 -73 -33 -129t-92 -87t-138 -31z" />
    <glyph glyph-name="six" unicode="6" horiz-adv-x="636" 
d="M319 -16q-84 0 -142 37.5t-88 109t-30 173.5q0 89 15.5 165.5t49.5 134t88.5 90t132.5 32.5q98 0 153 -47.5t76 -126.5l-107 -9q-12 39 -39.5 62t-82.5 23q-82 0 -129 -70t-50 -214l-19 4q11 34 37 62.5t65.5 46t90.5 17.5q71 0 124.5 -29.5t83 -83.5t29.5 -126
q0 -78 -33 -134.5t-91 -86.5t-134 -30zM320 80q65 0 105.5 41.5t40.5 113.5q0 45 -17.5 78.5t-49 51.5t-72.5 18q-45 0 -80 -18t-55 -51.5t-20 -78.5t18 -80t51.5 -55t78.5 -20z" />
    <glyph glyph-name="seven" unicode="7" horiz-adv-x="531" 
d="M173 0q0 110 29.5 217.5t84 207t130.5 186.5h-397v99h511v-92q-84 -96 -139.5 -191.5t-82 -200t-26.5 -226.5h-110z" />
    <glyph glyph-name="eight" unicode="8" horiz-adv-x="625" 
d="M313 -16q-81 0 -143 24t-96.5 71t-34.5 115q0 78 47 129t126 68l2 -20q-64 15 -102.5 55t-38.5 105q0 57 29 101t82.5 69t128.5 25q74 0 128 -25t82.5 -69t28.5 -101q0 -65 -38 -104.5t-103 -55.5l2 20q80 -17 127 -68t47 -129q0 -68 -34.5 -115t-96.5 -71t-143 -24z
M313 83q74 0 117.5 30.5t43.5 91.5q0 58 -39.5 93t-121.5 35t-122 -35t-40 -93q0 -61 44 -91.5t118 -30.5zM313 422q61 0 94.5 25.5t33.5 78.5q0 46 -32.5 74t-95.5 28t-96 -28t-33 -74q0 -53 34 -78.5t95 -25.5z" />
    <glyph glyph-name="nine" unicode="9" horiz-adv-x="638" 
d="M297 -16q-92 0 -149 44t-79 117l109 7q12 -33 41.5 -51.5t77.5 -18.5q84 0 127.5 66t44.5 214l20 -5q-25 -63 -75.5 -96t-118.5 -33q-70 0 -123 30.5t-83 85.5t-30 128q0 79 32 135.5t89 87.5t132 31q92 0 150.5 -41t87 -115.5t28.5 -178.5q0 -90 -15 -165t-48.5 -129
t-87 -83.5t-130.5 -29.5zM310 321q45 0 79 18t53 51.5t19 81.5q0 46 -17.5 81.5t-50.5 56t-79 20.5q-45 0 -77.5 -20t-50 -55.5t-17.5 -81.5q0 -47 18 -81t49.5 -52.5t73.5 -18.5z" />
    <glyph glyph-name="colon" unicode=":" horiz-adv-x="302" 
d="M86 0v126h129v-126h-129zM86 381v126h129v-126h-129z" />
    <glyph glyph-name="semicolon" unicode=";" horiz-adv-x="302" 
d="M86 381v126h129v-126h-129zM91 -157l50 157h-55v126h129v-111l-63 -172h-61z" />
    <glyph glyph-name="less" unicode="&#x3c;" horiz-adv-x="546" 
d="M496 29l-456 201v120l456 201v-99l-398 -175v26l398 -175v-99z" />
    <glyph glyph-name="equal" unicode="=" horiz-adv-x="544" 
d="M40 358v92h464v-92h-464zM40 144v92h464v-92h-464z" />
    <glyph glyph-name="greater" unicode="&#x3e;" horiz-adv-x="546" 
d="M50 29v99l398 175v-26l-398 175v99l456 -201v-120z" />
    <glyph glyph-name="question" unicode="?" horiz-adv-x="570" 
d="M228 209q0 75 22.5 117.5t75.5 72.5q38 22 58 39t26.5 36t6.5 47q0 47 -31 77.5t-87 30.5q-66 0 -102 -34.5t-43 -100.5l-112 6q6 66 38 117t87.5 80t131.5 29q70 0 121.5 -26.5t79.5 -72.5t28 -106q0 -43 -13 -73.5t-40.5 -56t-71.5 -52.5q-39 -24 -53.5 -51.5
t-14.5 -78.5h-107zM215 0v126h129v-126h-129z" />
    <glyph glyph-name="at" unicode="@" horiz-adv-x="925" 
d="M648 -70q-53 -22 -109.5 -33t-119.5 -11q-118 0 -202 43t-128.5 124.5t-44.5 195.5q0 102 32.5 186.5t93 146t143.5 95t184 33.5q116 0 202.5 -44t134 -124t47.5 -188q0 -82 -25 -143.5t-69 -95.5t-102 -34q-50 0 -81 28t-34 76l18 4q-11 -31 -37 -57t-60 -41t-70 -15
q-58 0 -98.5 23t-61.5 64.5t-21 96.5q0 68 26 123t73.5 87t110.5 32q54 0 92 -24t48 -63l-14 -7l7 91h87l-17 -206q-1 -22 -3.5 -49t-2.5 -45q0 -21 12 -33t36 -12q49 0 77.5 51.5t28.5 142.5q0 93 -35 157t-103.5 96.5t-168.5 32.5q-83 0 -151 -27.5t-117 -78t-75.5 -120.5
t-26.5 -156q0 -92 34.5 -157t101.5 -99t162 -34q56 0 108 10.5t99 30.5zM438 153q45 0 74 22.5t43.5 58t14.5 75.5q0 33 -11 59.5t-34 41.5t-61 15q-41 0 -69 -21.5t-43 -57t-15 -79.5q0 -49 23 -81.5t78 -32.5z" />
    <glyph glyph-name="A" unicode="A" horiz-adv-x="689" 
d="M20 0l256 710h137l256 -710h-115l-65 185h-290l-64 -185h-115zM233 283h223l-112 324z" />
    <glyph glyph-name="B" unicode="B" horiz-adv-x="688" 
d="M86 0v710h255q128 0 193 -46t65 -146q0 -45 -19 -79t-55.5 -53.5t-86.5 -20.5l-1 4q91 -2 141.5 -49.5t50.5 -124.5q0 -97 -65 -146t-185 -49h-293zM194 97h182q67 0 104.5 27.5t37.5 80.5q0 52 -37.5 81t-104.5 29h-182v-218zM194 407h145q71 0 110 27t39 76
q0 52 -37.5 77.5t-111.5 25.5h-145v-206z" />
    <glyph glyph-name="C" unicode="C" horiz-adv-x="713" 
d="M368 -16q-96 0 -169 44.5t-114 127.5t-41 198q0 114 40.5 197.5t113.5 129t171 45.5q132 0 205 -66t95 -183l-113 -6q-14 73 -60 114.5t-127 41.5q-65 0 -112.5 -33t-74 -94t-26.5 -146t26.5 -146t74.5 -93t111 -32q86 0 133.5 45.5t59.5 125.5l113 -6q-13 -81 -52 -140
t-103 -91.5t-151 -32.5z" />
    <glyph glyph-name="D" unicode="D" horiz-adv-x="705" 
d="M86 0v710h228q167 0 257 -92.5t90 -263.5q0 -170 -88.5 -262t-252.5 -92h-234zM194 99h120q118 0 176.5 63.5t58.5 191.5q0 130 -58.5 193.5t-176.5 63.5h-120v-512z" />
    <glyph glyph-name="E" unicode="E" horiz-adv-x="609" 
d="M86 0v710h462v-99h-354v-207h342v-96h-342v-209h362v-99h-470z" />
    <glyph glyph-name="F" unicode="F" horiz-adv-x="595" 
d="M86 0v710h461v-99h-410l57 59v-326l-57 51h392v-96h-392l57 51v-350h-108z" />
    <glyph glyph-name="G" unicode="G" horiz-adv-x="713" 
d="M365 -16q-101 0 -173 47.5t-110 131t-38 191.5q0 107 38.5 191t111.5 132.5t175 48.5q87 0 147.5 -31t96 -85t49.5 -123l-113 -6q-12 65 -54 105.5t-126 40.5q-74 0 -121 -37t-69.5 -99t-22.5 -137q0 -78 22.5 -139t70 -96.5t121.5 -35.5q58 0 100 25t65.5 68t25.5 95
h-190v91h293v-362h-74l-7 160l14 -12q-11 -48 -45 -85t-82.5 -58t-104.5 -21z" />
    <glyph glyph-name="H" unicode="H" horiz-adv-x="716" 
d="M86 0v710h108v-342l-52 38h432l-52 -38v342h108v-710h-108v346l52 -38h-432l52 38v-346h-108z" />
    <glyph glyph-name="I" unicode="I" horiz-adv-x="280" 
d="M86 0v710h108v-710h-108z" />
    <glyph glyph-name="J" unicode="J" horiz-adv-x="607" 
d="M298 -16q-71 0 -124.5 32.5t-82.5 90t-30 132.5l110 6q1 -80 34 -121t93 -41q63 0 96.5 43t33.5 124v460h108v-460q0 -81 -29.5 -141t-82.5 -92.5t-126 -32.5z" />
    <glyph glyph-name="K" unicode="K" horiz-adv-x="656" 
d="M86 0v710h108v-339l299 339h131l-272 -310l290 -400h-127l-235 324l-86 -96v-228h-108z" />
    <glyph glyph-name="L" unicode="L" horiz-adv-x="583" 
d="M86 0v710h108v-670l-57 59h403v-99h-454z" />
    <glyph glyph-name="M" unicode="M" horiz-adv-x="890" 
d="M86 0v710h148l211 -583l211 583h148v-710h-108v520l-191 -519h-120l-191 519v-520h-108z" />
    <glyph glyph-name="N" unicode="N" horiz-adv-x="745" 
d="M86 0v710h137l328 -579v579h108v-710h-142l-323 566v-566h-108z" />
    <glyph glyph-name="O" unicode="O" horiz-adv-x="751" 
d="M375 -16q-103 0 -177 44.5t-114 127.5t-40 198t40 198.5t114 128.5t177 45q104 0 178.5 -45t114 -128.5t39.5 -198.5t-39.5 -198t-114 -127.5t-178.5 -44.5zM375 83q69 0 118.5 32t75.5 92.5t26 146.5t-26 147t-75.5 93.5t-118.5 32.5q-68 0 -117 -32.5t-75.5 -93.5
t-26.5 -147t26.5 -146.5t75.5 -92.5t117 -32z" />
    <glyph glyph-name="P" unicode="P" horiz-adv-x="657" 
d="M86 0v710h265q122 0 190 -58.5t68 -162.5q0 -69 -31 -119.5t-88.5 -77t-138.5 -26.5h-157v-266h-108zM194 364h154q73 0 111 31.5t38 93.5q0 61 -38 91.5t-111 30.5h-154v-247z" />
    <glyph glyph-name="Q" unicode="Q" horiz-adv-x="745" 
d="M554 -67l-57 74q-24 -10 -56 -16.5t-69 -6.5q-103 0 -176 49t-112.5 132.5t-39.5 188.5t38 189t111.5 133.5t178.5 49.5q107 0 180.5 -49.5t111 -133.5t37.5 -189q0 -98 -34.5 -178t-99.5 -130l90 -113h-103zM372 83q19 0 34 2t27 7l-101 127h103l68 -90q43 35 64.5 91.5
t21.5 133.5q0 74 -23.5 136t-71.5 99.5t-122 37.5q-73 0 -121 -37.5t-71.5 -99.5t-23.5 -136q0 -73 23.5 -135t72 -99t120.5 -37z" />
    <glyph glyph-name="R" unicode="R" horiz-adv-x="680" 
d="M86 0v710h283q76 0 131 -26t85 -74t30 -114q0 -48 -21.5 -86t-57 -60.5t-75.5 -25.5l-5 9q67 0 104 -30.5t43 -95.5l19 -207h-109l-17 193q-3 43 -29 63.5t-85 20.5h-188v-277h-108zM194 376h177q61 0 96.5 30.5t35.5 86.5q0 57 -36 87.5t-105 30.5h-168v-235z" />
    <glyph glyph-name="S" unicode="S" horiz-adv-x="654" 
d="M342 -16q-85 0 -147.5 31t-98.5 86t-42 128l111 7q7 -50 29 -84.5t59.5 -52t90.5 -17.5q46 0 78.5 11.5t49.5 34.5t17 56q0 30 -14.5 53.5t-55 43t-118.5 38.5q-85 21 -136 46t-73.5 62.5t-22.5 92.5q0 61 29.5 107.5t84.5 72.5t132 26q81 0 138.5 -30t91 -82t41.5 -119
l-111 -6q-5 41 -25 72.5t-54 49t-83 17.5q-62 0 -97.5 -28.5t-35.5 -75.5q0 -30 14.5 -50.5t52 -35.5t106.5 -32q92 -21 146.5 -51.5t77.5 -71.5t23 -93q0 -63 -32.5 -109.5t-90.5 -71.5t-135 -25z" />
    <glyph glyph-name="T" unicode="T" horiz-adv-x="568" 
d="M230 0v611h-218v99h544v-99h-218v-611h-108z" />
    <glyph glyph-name="U" unicode="U" horiz-adv-x="694" 
d="M347 -16q-84 0 -146.5 32.5t-96 92.5t-33.5 142v460h108v-460q0 -81 44 -124.5t124 -43.5t124 43.5t44 124.5v460h108v-460q0 -82 -33.5 -142t-95.5 -92.5t-147 -32.5z" />
    <glyph glyph-name="V" unicode="V" horiz-adv-x="688" 
d="M276 0l-256 710h115l209 -590l209 590h115l-257 -710h-135z" />
    <glyph glyph-name="W" unicode="W" horiz-adv-x="968" 
d="M226 0l-188 710h115l138 -561l138 561h110l138 -561l137 561h117l-189 -710h-126l-132 518l-132 -518h-126z" />
    <glyph glyph-name="X" unicode="X" horiz-adv-x="633" 
d="M14 0l236 356l-234 354h127l175 -270l172 270h126l-234 -352l237 -358h-127l-176 274l-176 -274h-126z" />
    <glyph glyph-name="Y" unicode="Y" horiz-adv-x="594" 
d="M243 0v285l-249 425h124l179 -317l180 317h124l-250 -425v-285h-108z" />
    <glyph glyph-name="Z" unicode="Z" horiz-adv-x="561" 
d="M28 0v100l366 511h-352v99h480v-100l-368 -511h379v-99h-505z" />
    <glyph glyph-name="bracketleft" unicode="[" horiz-adv-x="361" 
d="M347 -110h-261v860h261v-86h-160v-688h160v-86z" />
    <glyph glyph-name="backslash" unicode="\" horiz-adv-x="470" 
d="M434 -110h-103l-295 860h103z" />
    <glyph glyph-name="bracketright" unicode="]" horiz-adv-x="361" 
d="M14 -110v86h160v688h-160v86h261v-860h-261z" />
    <glyph glyph-name="asciicircum" unicode="^" horiz-adv-x="438" 
d="M40 383l120 290h118l120 -290h-91l-97 229h18l-97 -229h-91z" />
    <glyph glyph-name="underscore" unicode="_" horiz-adv-x="558" 
d="M42 -92v92h475v-92h-475z" />
    <glyph glyph-name="grave" unicode="`" horiz-adv-x="258" 
d="M132 601l-90 135h111l63 -135h-84z" />
    <glyph glyph-name="a" unicode="a" horiz-adv-x="565" 
d="M224 -12q-83 0 -132.5 38t-49.5 107t41.5 107.5t128.5 55.5l183 35q0 62 -29 92.5t-86 30.5q-51 0 -80 -22.5t-40 -66.5l-109 7q15 80 74.5 126t154.5 46q108 0 164.5 -57.5t56.5 -161.5v-207q0 -19 6.5 -26.5t21.5 -7.5h19v-84q-5 -1 -16 -2t-23 -1q-34 0 -58.5 11
t-36.5 36.5t-12 68.5l11 -5q-8 -35 -34.5 -62t-67 -42.5t-87.5 -15.5zM241 72q48 0 82 18.5t53 51.5t19 75v34l-156 -30q-48 -9 -67.5 -28.5t-19.5 -49.5q0 -34 23.5 -52.5t65.5 -18.5z" />
    <glyph glyph-name="b" unicode="b" horiz-adv-x="608" 
d="M340 -12q-55 0 -97.5 24.5t-65.5 67.5l-3 -80h-99v710h106v-253q21 35 62.5 61t96.5 26q69 0 120 -34t78.5 -96.5t27.5 -147.5t-27.5 -147.5t-78.5 -96.5t-120 -34zM323 80q61 0 97 49.5t36 136.5t-36 136.5t-96 49.5q-45 0 -77 -22t-49 -63.5t-17 -100.5q0 -57 17 -99
t49 -64.5t76 -22.5z" />
    <glyph glyph-name="c" unicode="c" horiz-adv-x="563" 
d="M294 -12q-76 0 -133 34t-88 97t-31 147t31 146.5t88 97t133 34.5q65 0 115.5 -22.5t82 -65.5t40.5 -105l-111 -6q-8 52 -42 79.5t-85 27.5q-67 0 -104.5 -49.5t-37.5 -136.5t37.5 -136.5t104.5 -49.5q51 0 85 28.5t42 86.5l111 -6q-9 -61 -40.5 -106t-82 -70t-115.5 -25z
" />
    <glyph glyph-name="d" unicode="d" horiz-adv-x="608" 
d="M264 -12q-68 0 -118.5 34t-77 96.5t-26.5 147.5t27 147.5t77 96.5t118 34q55 0 98 -23t65 -64v253h106v-710h-99l-3 80q-22 -43 -66.5 -67.5t-100.5 -24.5zM292 80q43 0 73 22t46 64t16 100q0 60 -16 101.5t-46 63t-73 21.5q-64 0 -102 -49.5t-38 -136.5q0 -86 38 -136
t102 -50z" />
    <glyph glyph-name="e" unicode="e" horiz-adv-x="576" 
d="M294 -12q-78 0 -134.5 34t-87 97t-30.5 147t30.5 146.5t86.5 97t132 34.5q72 0 127 -33.5t85.5 -96.5t30.5 -152v-27h-382q4 -78 41.5 -117t101.5 -39q47 0 78 22t43 59l110 -7q-21 -74 -82.5 -119.5t-149.5 -45.5zM152 315h270q-5 71 -40.5 105t-90.5 34
q-57 0 -93.5 -35.5t-45.5 -103.5z" />
    <glyph glyph-name="f" unicode="f" horiz-adv-x="412" 
d="M129 0v566q0 66 37 105t116 39h94v-87h-80q-31 0 -46 -16.5t-15 -46.5v-560h-106zM55 439v86h313v-86h-313z" />
    <glyph glyph-name="g" unicode="g" horiz-adv-x="607" 
d="M289 -162q-63 0 -111 19t-79 53.5t-42 80.5l110 7q11 -33 38.5 -52.5t83.5 -19.5q66 0 101.5 28t35.5 85v77q-19 -41 -61 -65t-94 -24q-67 0 -119 33t-81 91t-29 134q0 77 28.5 135t80 91t116.5 33q57 0 100.5 -26t62.5 -70v84h102v-490q0 -66 -29.5 -111.5t-84 -69
t-129.5 -23.5zM288 117q62 0 99.5 45t38.5 124q1 52 -16 89.5t-48.5 58t-73.5 20.5q-65 0 -100.5 -45.5t-35.5 -122.5q0 -78 36.5 -123.5t99.5 -45.5z" />
    <glyph glyph-name="h" unicode="h" horiz-adv-x="591" 
d="M75 0v710h106v-298l-13 2q9 45 33 73.5t59 42.5t77 14q58 0 98 -25.5t60.5 -71.5t20.5 -105v-342h-106v314q0 72 -24.5 106.5t-76.5 34.5q-58 0 -93 -36.5t-35 -106.5v-312h-106z" />
    <glyph glyph-name="i" unicode="i" horiz-adv-x="256" 
d="M75 0v532h106v-532h-106zM73 609v106h110v-106h-110z" />
    <glyph glyph-name="j" unicode="j" horiz-adv-x="284" 
d="M-4 -150v87h48q27 0 42.5 12t15.5 46v537h107v-541q0 -76 -34.5 -108.5t-114.5 -32.5h-64zM101 609v106h110v-106h-110z" />
    <glyph glyph-name="k" unicode="k" horiz-adv-x="609" 
d="M75 0v710h106v-441l239 263h134l-208 -224l216 -308h-122l-165 242l-94 -100v-142h-106z" />
    <glyph glyph-name="l" unicode="l" horiz-adv-x="282" 
d="M191 0q-52 0 -84 27t-32 86v597h106v-587q0 -18 9.5 -27t27.5 -9h42v-87h-69z" />
    <glyph glyph-name="m" unicode="m" horiz-adv-x="885" 
d="M75 0v532h97l3 -132l-12 4q9 44 31.5 75t55.5 48t72 17q68 0 111 -38.5t54 -105.5h-17q9 47 30.5 78.5t55.5 48.5t77 17q56 0 95.5 -23.5t60 -68.5t20.5 -110v-342h-106v316q0 69 -25 104t-76 35q-33 0 -58 -17t-38.5 -49t-13.5 -77v-312h-101v312q0 68 -22.5 105.5
t-76.5 37.5q-34 0 -58.5 -17t-38.5 -49.5t-14 -76.5v-312h-106z" />
    <glyph glyph-name="n" unicode="n" horiz-adv-x="591" 
d="M75 0v532h97l4 -142l-13 7q9 52 34 84t61 47.5t78 15.5q60 0 99.5 -26.5t60 -72t20.5 -103.5v-342h-106v310q0 47 -10 79t-33 49t-60 17q-56 0 -91 -37t-35 -108v-310h-106z" />
    <glyph glyph-name="o" unicode="o" horiz-adv-x="588" 
d="M294 -12q-76 0 -133 34t-88 97t-31 147q0 85 31 147t88 96.5t133 34.5t133 -34.5t88 -96.5t31 -147q0 -84 -31 -147t-88 -97t-133 -34zM294 80q68 0 105 49.5t37 136.5t-37 136.5t-105 49.5q-67 0 -104.5 -49.5t-37.5 -136.5t37.5 -136.5t104.5 -49.5z" />
    <glyph glyph-name="p" unicode="p" horiz-adv-x="608" 
d="M75 -150v682h100l3 -114l-12 6q20 59 66 89.5t106 30.5q78 0 128.5 -38.5t75 -101.5t24.5 -138t-24.5 -138t-75 -101.5t-128.5 -38.5q-40 0 -75 14t-59.5 39.5t-34.5 60.5l12 12v-264h-106zM319 80q64 0 100.5 49t36.5 137t-36.5 137t-100.5 49q-42 0 -73 -20.5
t-48 -62.5t-17 -103t16.5 -103t48 -62.5t73.5 -20.5z" />
    <glyph glyph-name="q" unicode="q" horiz-adv-x="608" 
d="M533 -150h-106v264l12 -12q-10 -35 -34.5 -60.5t-59.5 -39.5t-75 -14q-78 0 -128.5 38.5t-75 101.5t-24.5 138t24.5 138t75 101.5t128.5 38.5q61 0 107 -30.5t65 -89.5l-12 -6l3 114h100v-682zM289 80q43 0 74 20.5t47.5 62.5t16.5 103t-17 103t-48 62.5t-73 20.5
q-64 0 -100.5 -49t-36.5 -137t36.5 -137t100.5 -49z" />
    <glyph glyph-name="r" unicode="r" horiz-adv-x="394" 
d="M75 0v532h97l4 -141l-9 3q11 72 44.5 105t90.5 33h51v-95h-51q-40 0 -67 -13t-40.5 -40t-13.5 -70v-314h-106z" />
    <glyph glyph-name="s" unicode="s" horiz-adv-x="540" 
d="M280 -12q-75 0 -126.5 23t-79.5 63.5t-32 93.5l109 5q8 -44 38 -70t91 -26q50 0 79 16t29 51q0 19 -9.5 32.5t-36.5 23t-80 18.5q-79 15 -124 35t-64 51t-19 75q0 73 54.5 119t157.5 46q69 0 116 -23.5t73.5 -63t33.5 -88.5l-109 -6q-5 28 -19.5 48.5t-38.5 32t-57 11.5
q-51 0 -76 -20t-25 -52q0 -24 11.5 -39t37.5 -24.5t69 -16.5q83 -14 130 -34.5t66 -50.5t19 -73q0 -50 -28 -85t-77 -53.5t-113 -18.5z" />
    <glyph glyph-name="t" unicode="t" horiz-adv-x="410" 
d="M279 0q-76 0 -112 35t-36 109v513h106v-505q0 -37 16 -51t49 -14h76v-87h-99zM50 445v87h328v-87h-328z" />
    <glyph glyph-name="u" unicode="u" horiz-adv-x="586" 
d="M250 -12q-80 0 -127.5 53.5t-47.5 148.5v342h106v-315q0 -72 25 -106t76 -34q58 0 90.5 37.5t32.5 105.5v312h106v-532h-99l-2 139l15 -6q-14 -70 -59 -107.5t-116 -37.5z" />
    <glyph glyph-name="v" unicode="v" horiz-adv-x="560" 
d="M216 0l-194 532h113l145 -424l145 424h114l-195 -532h-128z" />
    <glyph glyph-name="w" unicode="w" horiz-adv-x="829" 
d="M184 0l-162 532h111l114 -416l117 416h100l117 -416l115 416h111l-162 -532h-119l-112 380l-112 -380h-118z" />
    <glyph glyph-name="x" unicode="x" horiz-adv-x="607" 
d="M47 0l193 272l-185 260h118l131 -191l127 191h121l-183 -262l191 -270h-118l-137 203l-138 -203h-120z" />
    <glyph glyph-name="y" unicode="y" horiz-adv-x="553" 
d="M105 -150v87h65q27 0 40 8t20 27l17 44h-33l-192 516h112l146 -418l139 418h113l-212 -594q-16 -46 -47.5 -67t-87.5 -21h-80z" />
    <glyph glyph-name="z" unicode="z" horiz-adv-x="564" 
d="M57 0v95l321 350h-311v87h433v-95l-324 -350h332v-87h-451z" />
    <glyph glyph-name="braceleft" unicode="{" horiz-adv-x="395" 
d="M323 -118q-84 0 -132 49.5t-48 127.5v83q0 43 -11.5 71.5t-33.5 42.5t-54 14v95q32 0 54 14t33.5 42.5t11.5 70.5v83q0 79 48 128.5t132 49.5h58v-95q-73 3 -105 -18t-32 -71v-85q0 -73 -33.5 -114t-79.5 -51v-2q47 -9 80 -51t33 -116v-84q0 -50 32 -71.5t105 -19.5v-93
h-58z" />
    <glyph glyph-name="bar" unicode="|" horiz-adv-x="274" 
d="M86 -110v860h102v-860h-102z" />
    <glyph glyph-name="braceright" unicode="}" horiz-adv-x="395" 
d="M72 -118h-58v93q74 -2 105.5 19.5t31.5 71.5v84q0 74 33.5 116t80.5 51v2q-46 10 -80 51t-34 114v85q0 50 -31.5 71t-105.5 18v95h58q86 0 133 -49.5t47 -128.5v-83q0 -42 11.5 -70.5t33.5 -42.5t54 -14v-95q-32 0 -54 -14t-33.5 -42.5t-11.5 -71.5v-83q0 -78 -47 -127.5
t-133 -49.5z" />
    <glyph glyph-name="asciitilde" unicode="~" horiz-adv-x="523" 
d="M349 237q-33 0 -55 12.5t-50 45.5q-18 23 -29 33.5t-19 13t-18 2.5q-24 0 -37 -24.5t-13 -73.5h-88q0 82 36.5 132.5t96.5 50.5q36 0 58.5 -14t47.5 -45t37.5 -39.5t29.5 -8.5q24 0 36.5 25t12.5 73h88q0 -82 -36.5 -132.5t-97.5 -50.5z" />
    <glyph glyph-name="uni00A0" unicode="&#xa0;" horiz-adv-x="243" 
 />
    <glyph glyph-name="exclamdown" unicode="&#xa1;" horiz-adv-x="228" 
d="M63 -162v225q0 40 3.5 90.5t7.5 99t8 83.5h71q3 -35 7.5 -83.5t7.5 -99t3 -90.5v-225h-108zM49 548h130v-126h-130v126z" />
    <glyph glyph-name="cent" unicode="&#xa2;" horiz-adv-x="563" 
d="M220 -12l63 738h72l-63 -738h-72zM294 79q-76 0 -133 34.5t-88 97t-31 146.5t31 146.5t88 97t133 34.5q65 0 115.5 -23t82 -65.5t40.5 -104.5l-111 -6q-8 52 -42 79.5t-85 27.5q-67 0 -104.5 -49.5t-37.5 -136.5q0 -88 37.5 -137t104.5 -49q51 0 85 28.5t42 86.5l111 -6
q-9 -61 -40.5 -106.5t-82 -70t-115.5 -24.5z" />
    <glyph glyph-name="sterling" unicode="&#xa3;" horiz-adv-x="623" 
d="M55 0v92q57 32 87 79t30 106q0 9 -1 18.5t-3 19.5h-114v76h97q-14 39 -22 72.5t-8 63.5q0 57 28.5 102t78.5 71t113 26q75 0 125 -24.5t78 -66t36 -92.5l-122 -7q-12 46 -42.5 68.5t-71.5 22.5q-34 0 -59.5 -14.5t-39.5 -40.5t-14 -59q0 -24 8.5 -54t20.5 -68h169v-76
h-158q-1 -81 -24 -132.5t-83 -80.5h404v-101z" />
    <glyph glyph-name="currency" unicode="&#xa4;" horiz-adv-x="627" 
d="M314 132q-60 0 -108.5 29t-77.5 78t-29 108t29 108t77.5 78t107.5 29q60 0 108.5 -29t77.5 -78t29 -108t-29 -108t-77.5 -78t-107.5 -29zM313 214q36 0 66.5 18t49 48t18.5 67t-18.5 67t-49 48t-66.5 18t-66.5 -18t-48.5 -48t-18 -67t18 -67t48.5 -48t66.5 -18zM101 78
l-57 56l134 134l56 -57zM526 78l-133 133l56 57l134 -134zM449 427l-56 57l133 133l57 -56zM178 427l-134 134l57 56l133 -133z" />
    <glyph glyph-name="yen" unicode="&#xa5;" horiz-adv-x="594" 
d="M93 136v82h465v-82h-465zM93 286v82h465v-82h-465zM243 0v285l-249 425h124l179 -317l180 317h124l-250 -425v-285h-108z" />
    <glyph glyph-name="brokenbar" unicode="&#xa6;" horiz-adv-x="274" 
d="M86 395v355h102v-355h-102zM86 -110v355h102v-355h-102z" />
    <glyph glyph-name="section" unicode="&#xa7;" horiz-adv-x="568" 
d="M295 -65q-71 0 -123.5 23.5t-82.5 64t-35 92.5l109 7q7 -45 39.5 -71t90.5 -26q41 0 64.5 8t34.5 23.5t11 35.5q0 29 -32 50.5t-110 37.5q-69 14 -111 34.5t-61 50t-19 69.5q1 41 23.5 72t66.5 51q-45 20 -66.5 48.5t-21.5 62.5q0 49 27 84.5t75.5 54.5t114.5 19
q63 0 110.5 -20.5t77 -59t36.5 -94.5l-107 -6q-7 44 -40 67.5t-85 23.5q-29 0 -51 -8t-34.5 -23t-12.5 -34q0 -30 25 -46.5t91 -33.5q78 -17 125 -39t68 -52.5t21 -77.5q0 -40 -20.5 -67.5t-61.5 -44.5q42 -20 61.5 -49.5t19.5 -74.5t-27.5 -79t-76.5 -53.5t-113 -19.5z
M316 253q45 0 71.5 20.5t26.5 53.5q0 30 -23 49t-57 28t-68 9q-26 0 -47.5 -10t-34.5 -26.5t-13 -36.5q0 -21 13.5 -41t45.5 -32.5t86 -13.5z" />
    <glyph glyph-name="dieresis" unicode="&#xa8;" horiz-adv-x="377" 
d="M42 608v106h106v-106h-106zM229 608v106h107v-106h-107z" />
    <glyph glyph-name="copyright" unicode="&#xa9;" horiz-adv-x="826" 
d="M413 -12q-76 0 -143 28.5t-118 79.5t-79.5 118t-28.5 143q0 77 28.5 143.5t79.5 117.5t118 79.5t143 28.5q77 0 143.5 -28.5t117.5 -79.5t79.5 -117.5t28.5 -143.5q0 -76 -28.5 -143t-79.5 -118t-117.5 -79.5t-143.5 -28.5zM413 72q58 0 109 22t90.5 61t61.5 91t22 111
t-22 111t-61.5 91t-90.5 61t-109 22t-109 -22t-90.5 -61t-61.5 -91t-22 -111t22 -111t61.5 -91t90.5 -61t109 -22zM417 148q-59 0 -104.5 26.5t-71 74t-25.5 108.5q0 62 25.5 108.5t71 73t104.5 26.5q50 0 90 -19.5t65 -55t29 -80.5l-88 -5q-5 37 -31.5 60t-64.5 23
q-33 0 -58.5 -16.5t-40 -46t-14.5 -68.5t14.5 -69t40 -46.5t58.5 -16.5q26 0 47.5 11.5t35 32t17.5 47.5l88 -5q-5 -47 -30.5 -84t-66 -58t-91.5 -21z" />
    <glyph glyph-name="ordfeminine" unicode="&#xaa;" horiz-adv-x="411" 
d="M159 376q-54 0 -86.5 23.5t-32.5 66.5q0 46 28.5 70.5t82.5 35.5l109 22q0 32 -15.5 48.5t-42.5 16.5q-26 0 -41 -12.5t-20 -35.5l-95 4q9 54 49.5 82.5t106.5 28.5q76 0 114 -35.5t38 -103.5v-119q0 -14 4.5 -19.5t13.5 -5.5h9v-64q-3 -1 -12.5 -2t-21.5 -1
q-20 0 -37.5 7t-27.5 24t-10 49l7 -4q-8 -32 -38.5 -54t-81.5 -22zM177 438q36 0 59.5 20.5t23.5 56.5v20l-77 -17q-24 -5 -35.5 -16.5t-11.5 -27.5q0 -17 10 -26.5t31 -9.5z" />
    <glyph glyph-name="guillemotleft" unicode="&#xab;" horiz-adv-x="570" 
d="M306 76h-124l-140 163v74l140 163h124l-172 -200zM529 76h-125l-140 163v74l140 163h125l-172 -200z" />
    <glyph glyph-name="logicalnot" unicode="&#xac;" horiz-adv-x="504" 
d="M381 66v172h-341v83h424v-255h-83z" />
    <glyph glyph-name="registered" unicode="&#xae;" horiz-adv-x="640" 
d="M320 173q-57 0 -107.5 21.5t-88 59.5t-59 88t-21.5 108t21.5 108t59 87.5t88 59t107.5 21.5q58 0 107.5 -21.5t87.5 -59t59.5 -87.5t21.5 -108t-21.5 -108t-59.5 -88t-87.5 -59.5t-107.5 -21.5zM320 232q63 0 111.5 30t76 79.5t27.5 108.5t-27.5 108t-76 78.5
t-111.5 29.5t-111.5 -29.5t-76.5 -78.5t-28 -108t28 -108.5t76.5 -79.5t111.5 -30zM208 300v299h106q58 0 91 -25t33 -68q0 -30 -16.5 -52.5t-46.5 -30.5l73 -123h-70l-65 114h-41v-114h-64zM272 465h45q27 0 42.5 11t15.5 31q0 19 -15.5 29t-42.5 10h-45v-81z" />
    <glyph glyph-name="macron" unicode="&#xaf;" horiz-adv-x="362" 
d="M42 619v85h278v-85h-278z" />
    <glyph glyph-name="degree" unicode="&#xb0;" horiz-adv-x="412" 
d="M206 397q-45 0 -82.5 22t-59.5 59t-22 84q0 46 22 83.5t59.5 59t82.5 21.5t82.5 -21.5t59.5 -59t22 -83.5q0 -47 -22 -84t-59.5 -59t-82.5 -22zM206 481q34 0 57 22.5t23 58.5t-23.5 59t-56.5 23q-32 0 -56 -23t-24 -59t24 -58.5t56 -22.5z" />
    <glyph glyph-name="plusminus" unicode="&#xb1;" horiz-adv-x="542" 
d="M40 0v85h462v-85h-462zM225 119v454h92v-454h-92zM40 301v91h462v-91h-462z" />
    <glyph glyph-name="uni00B2" unicode="&#xb2;" horiz-adv-x="356" 
d="M41 323q0 46 7 78.5t29 58t65 48.5l51 27q18 10 28.5 19t15 20.5t4.5 28.5q0 24 -16 37.5t-40 13.5q-33 0 -50 -16t-22 -50l-72 3q6 59 42.5 93t100.5 34q63 0 97 -31.5t34 -82.5q0 -47 -25 -75t-69 -50l-43 -22q-29 -15 -41 -33t-12 -35h189v-66h-273z" />
    <glyph glyph-name="uni00B3" unicode="&#xb3;" horiz-adv-x="344" 
d="M167 315q-54 0 -85.5 13.5t-45.5 39t-16 58.5l75 3q2 -22 18.5 -36t53.5 -14q34 0 52.5 15t18.5 42q0 26 -18 42t-57 16h-27v61h27q26 0 42 12.5t16 35.5q0 22 -14 36t-45 14q-28 0 -44 -13.5t-18 -33.5l-75 5q6 47 40 77t97 30q69 0 101.5 -29.5t32.5 -75.5
q0 -35 -17.5 -55t-51.5 -29q49 -11 68 -36.5t19 -59.5q0 -54 -40 -86t-107 -32z" />
    <glyph glyph-name="acute" unicode="&#xb4;" horiz-adv-x="258" 
d="M42 596l63 134h111l-90 -134h-84z" />
    <glyph glyph-name="uni00B5" unicode="&#xb5;" horiz-adv-x="586" 
d="M75 -150v380l106 -176v-204h-106zM250 -12q-80 0 -127.5 53.5t-47.5 148.5v342h106v-315q0 -72 25 -106t76 -34q58 0 90.5 37.5t32.5 105.5v312h106v-532h-99l-2 139l15 -6q-14 -70 -59 -107.5t-116 -37.5z" />
    <glyph glyph-name="paragraph" unicode="&#xb6;" horiz-adv-x="618" 
d="M267 0v307q-66 0 -116.5 24.5t-78.5 70t-28 106.5q0 62 29 107.5t81.5 70t120.5 24.5h257v-710h-98v621h-69v-621h-98z" />
    <glyph glyph-name="periodcentered" unicode="&#xb7;" horiz-adv-x="213" 
d="M42 240v126h129v-126h-129z" />
    <glyph glyph-name="cedilla" unicode="&#xb8;" horiz-adv-x="321" 
d="M162 -224q-48 0 -78.5 22.5t-41.5 57.5l56 22q8 -21 23 -30.5t39 -9.5q25 0 38.5 10t13.5 28q0 19 -13.5 31t-58.5 12l-33 33l37 58h71l-32 -44q50 -3 73 -28.5t23 -63.5q0 -31 -15.5 -52.5t-41.5 -33.5t-60 -12z" />
    <glyph glyph-name="uni00B9" unicode="&#xb9;" horiz-adv-x="255" 
d="M118 323v244l-98 -1v58h25q45 0 68 23t23 64h59v-388h-77z" />
    <glyph glyph-name="ordmasculine" unicode="&#xba;" horiz-adv-x="428" 
d="M214 376q-80 0 -127 47.5t-47 127.5t47 127.5t127 47.5t127 -48t47 -127q0 -80 -47 -127.5t-127 -47.5zM214 446q39 0 59 27.5t20 77.5q0 49 -20 77t-59 28t-59 -28.5t-20 -76.5q0 -49 20 -77t59 -28z" />
    <glyph glyph-name="guillemotright" unicode="&#xbb;" horiz-adv-x="576" 
d="M263 76l171 200l-171 200h124l140 -163v-74l-140 -163h-124zM41 76l171 200l-171 200h124l140 -163v-74l-140 -163h-124z" />
    <glyph glyph-name="onequarter" unicode="&#xbc;" horiz-adv-x="751" 
d="M118 323v244l-98 -1v58h25q45 0 68 23t23 64h59v-388h-77zM91 0l484 710h84l-484 -710h-84zM602 0v85h-181v58l180 244h78v-237h52v-65h-52v-85h-77zM499 150h103v134z" />
    <glyph glyph-name="onehalf" unicode="&#xbd;" horiz-adv-x="815" 
d="M118 323v244l-98 -1v58h25q45 0 68 23t23 64h59v-388h-77zM91 0l484 710h84l-484 -710h-84zM500 0q0 46 7 78.5t29 58t65 48.5l51 27q18 10 28.5 19t15 20.5t4.5 28.5q0 24 -16 37.5t-40 13.5q-33 0 -50 -16t-22 -50l-72 3q6 59 42.5 93t100.5 34q63 0 97 -31.5t34 -82.5
q0 -47 -25 -75t-69 -50l-43 -22q-29 -15 -41 -33t-12 -35h189v-66h-273z" />
    <glyph glyph-name="threequarters" unicode="&#xbe;" horiz-adv-x="804" 
d="M167 315q-54 0 -85.5 13.5t-45.5 39t-16 58.5l75 3q2 -22 18.5 -36t53.5 -14q34 0 52.5 15t18.5 42q0 26 -18 42t-57 16h-27v61h27q26 0 42 12.5t16 35.5q0 22 -14 36t-45 14q-28 0 -44 -13.5t-18 -33.5l-75 5q6 47 40 77t97 30q69 0 101.5 -29.5t32.5 -75.5
q0 -35 -17.5 -55t-51.5 -29q49 -11 68 -36.5t19 -59.5q0 -54 -40 -86t-107 -32zM144 0l484 710h84l-484 -710h-84zM655 0v85h-181v58l180 244h78v-237h52v-65h-52v-85h-77zM552 150h103v134z" />
    <glyph glyph-name="questiondown" unicode="&#xbf;" horiz-adv-x="570" 
d="M271 -162q-70 0 -121.5 26.5t-79.5 73t-28 105.5q0 43 13 73.5t40.5 56t71.5 52.5q40 24 54 52t14 78h106q0 -74 -22 -117t-75 -73q-38 -22 -57.5 -39t-26.5 -36t-7 -47q0 -47 31 -77.5t87 -30.5q66 0 102.5 34.5t42.5 100.5l112 -6q-6 -66 -38 -117t-87.5 -80
t-131.5 -29zM355 564v-126h-130v126h130z" />
    <glyph glyph-name="Agrave" unicode="&#xc0;" horiz-adv-x="689" 
d="M20 0l256 710h137l256 -710h-115l-65 185h-290l-64 -185h-115zM233 283h223l-112 324zM308 779l-90 135h111l63 -135h-84z" />
    <glyph glyph-name="Aacute" unicode="&#xc1;" horiz-adv-x="689" 
d="M20 0l256 710h137l256 -710h-115l-65 185h-290l-64 -185h-115zM233 283h223l-112 324zM297 774l63 134h111l-90 -134h-84z" />
    <glyph glyph-name="Acircumflex" unicode="&#xc2;" horiz-adv-x="689" 
d="M20 0l256 710h137l256 -710h-115l-65 185h-290l-64 -185h-115zM233 283h223l-112 324zM197 774l92 139h110l92 -139h-81l-76 103h20l-76 -103h-81z" />
    <glyph glyph-name="Atilde" unicode="&#xc3;" horiz-adv-x="691" 
d="M17 0l256 710h137l256 -710h-115l-65 185h-290l-64 -185h-115zM230 283h223l-112 324zM391 787q-20 0 -37 7t-35 21q-15 13 -24.5 18.5t-22.5 5.5q-17 0 -28.5 -12t-13.5 -47h-59q1 61 28.5 93.5t71.5 32.5q24 0 42 -8t36 -22q14 -12 24.5 -17t21.5 -5q18 0 28 12.5
t12 48.5h60q-3 -60 -30 -94t-74 -34z" />
    <glyph glyph-name="Adieresis" unicode="&#xc4;" horiz-adv-x="689" 
d="M20 0l256 710h137l256 -710h-115l-65 185h-290l-64 -185h-115zM233 283h223l-112 324zM198 786v106h106v-106h-106zM385 786v106h107v-106h-107z" />
    <glyph glyph-name="Aring" unicode="&#xc5;" horiz-adv-x="691" 
d="M17 0l256 710h137l256 -710h-115l-65 185h-290l-64 -185h-115zM230 283h223l-112 324zM341 756q-40 0 -67.5 27t-27.5 68q0 40 27.5 67.5t67.5 27.5q41 0 68.5 -27.5t27.5 -67.5q0 -41 -27.5 -68t-68.5 -27zM341 810q18 0 29.5 11.5t11.5 29.5q0 17 -11.5 28.5
t-29.5 11.5q-17 0 -28.5 -11.5t-11.5 -28.5q0 -18 11.5 -29.5t28.5 -11.5z" />
    <glyph glyph-name="AE" unicode="&#xc6;" horiz-adv-x="995" 
d="M20 0l380 710h534v-99h-323v-207h311v-96h-311v-209h331v-99h-439v185h-286l48 97h238v332h-48l-317 -614h-118z" />
    <glyph glyph-name="Ccedilla" unicode="&#xc7;" horiz-adv-x="713" 
d="M368 -16q-96 0 -169 44.5t-114 127.5t-41 198q0 114 40.5 197.5t113.5 129t171 45.5q132 0 205 -66t95 -183l-113 -6q-14 73 -60 114.5t-127 41.5q-65 0 -112.5 -33t-74 -94t-26.5 -146t26.5 -146t74.5 -93t111 -32q86 0 133.5 45.5t59.5 125.5l113 -6q-13 -81 -52 -140
t-103 -91.5t-151 -32.5zM361 -224q-48 0 -78.5 22.5t-41.5 57.5l56 22q8 -21 23 -30.5t39 -9.5q25 0 38.5 10t13.5 28q0 19 -13.5 31t-58.5 12l-33 33l37 58h71l-32 -44q50 -3 73 -28.5t23 -63.5q0 -31 -15.5 -52.5t-41.5 -33.5t-60 -12z" />
    <glyph glyph-name="Egrave" unicode="&#xc8;" horiz-adv-x="609" 
d="M86 0v710h462v-99h-354v-207h342v-96h-342v-209h362v-99h-470zM282 779l-90 135h111l63 -135h-84z" />
    <glyph glyph-name="Eacute" unicode="&#xc9;" horiz-adv-x="609" 
d="M86 0v710h462v-99h-354v-207h342v-96h-342v-209h362v-99h-470zM272 774l63 134h111l-90 -134h-84z" />
    <glyph glyph-name="Ecircumflex" unicode="&#xca;" horiz-adv-x="609" 
d="M86 0v710h462v-99h-354v-207h342v-96h-342v-209h362v-99h-470zM172 774l92 139h110l92 -139h-81l-76 103h20l-76 -103h-81z" />
    <glyph glyph-name="Edieresis" unicode="&#xcb;" horiz-adv-x="609" 
d="M86 0v710h462v-99h-354v-207h342v-96h-342v-209h362v-99h-470zM172 786v106h106v-106h-106zM359 786v106h107v-106h-107z" />
    <glyph glyph-name="Igrave" unicode="&#xcc;" horiz-adv-x="280" 
d="M86 0v710h108v-710h-108zM104 779l-90 135h111l63 -135h-84z" />
    <glyph glyph-name="Iacute" unicode="&#xcd;" horiz-adv-x="280" 
d="M86 0v710h108v-710h-108zM93 774l63 134h111l-90 -134h-84z" />
    <glyph glyph-name="Icircumflex" unicode="&#xce;" horiz-adv-x="280" 
d="M86 0v710h108v-710h-108zM-7 774l92 139h110l92 -139h-81l-76 103h20l-76 -103h-81z" />
    <glyph glyph-name="Idieresis" unicode="&#xcf;" horiz-adv-x="280" 
d="M86 0v710h108v-710h-108zM-7 786v106h106v-106h-106zM180 786v106h107v-106h-107z" />
    <glyph glyph-name="Eth" unicode="&#xd0;" horiz-adv-x="705" 
d="M86 0v710h228q167 0 257 -92.5t90 -263.5q0 -170 -88.5 -262t-252.5 -92h-234zM194 99h120q118 0 176.5 63.5t58.5 191.5q0 130 -58.5 193.5t-176.5 63.5h-120v-512zM16 310v90h374v-90h-374z" />
    <glyph glyph-name="Ntilde" unicode="&#xd1;" horiz-adv-x="745" 
d="M86 0v710h137l328 -579v579h108v-710h-142l-323 566v-566h-108zM442 785q-20 0 -37 7t-35 21q-15 13 -24.5 18.5t-22.5 5.5q-17 0 -28.5 -12t-13.5 -47h-59q1 61 28.5 93.5t71.5 32.5q24 0 42 -8t36 -22q14 -12 24.5 -17t21.5 -5q18 0 28 12.5t12 48.5h60q-3 -60 -30 -94
t-74 -34z" />
    <glyph glyph-name="Ograve" unicode="&#xd2;" horiz-adv-x="751" 
d="M375 -16q-103 0 -177 44.5t-114 127.5t-40 198t40 198.5t114 128.5t177 45q104 0 178.5 -45t114 -128.5t39.5 -198.5t-39.5 -198t-114 -127.5t-178.5 -44.5zM375 83q69 0 118.5 32t75.5 92.5t26 146.5t-26 147t-75.5 93.5t-118.5 32.5q-68 0 -117 -32.5t-75.5 -93.5
t-26.5 -147t26.5 -146.5t75.5 -92.5t117 -32zM339 779l-90 135h111l63 -135h-84z" />
    <glyph glyph-name="Oacute" unicode="&#xd3;" horiz-adv-x="751" 
d="M375 -16q-103 0 -177 44.5t-114 127.5t-40 198t40 198.5t114 128.5t177 45q104 0 178.5 -45t114 -128.5t39.5 -198.5t-39.5 -198t-114 -127.5t-178.5 -44.5zM375 83q69 0 118.5 32t75.5 92.5t26 146.5t-26 147t-75.5 93.5t-118.5 32.5q-68 0 -117 -32.5t-75.5 -93.5
t-26.5 -147t26.5 -146.5t75.5 -92.5t117 -32zM328 774l63 134h111l-90 -134h-84z" />
    <glyph glyph-name="Ocircumflex" unicode="&#xd4;" horiz-adv-x="751" 
d="M375 -16q-103 0 -177 44.5t-114 127.5t-40 198t40 198.5t114 128.5t177 45q104 0 178.5 -45t114 -128.5t39.5 -198.5t-39.5 -198t-114 -127.5t-178.5 -44.5zM375 83q69 0 118.5 32t75.5 92.5t26 146.5t-26 147t-75.5 93.5t-118.5 32.5q-68 0 -117 -32.5t-75.5 -93.5
t-26.5 -147t26.5 -146.5t75.5 -92.5t117 -32zM228 774l92 139h110l92 -139h-81l-76 103h20l-76 -103h-81z" />
    <glyph glyph-name="Otilde" unicode="&#xd5;" horiz-adv-x="751" 
d="M375 -16q-103 0 -177 44.5t-114 127.5t-40 198t40 198.5t114 128.5t177 45q104 0 178.5 -45t114 -128.5t39.5 -198.5t-39.5 -198t-114 -127.5t-178.5 -44.5zM375 83q69 0 118.5 32t75.5 92.5t26 146.5t-26 147t-75.5 93.5t-118.5 32.5q-68 0 -117 -32.5t-75.5 -93.5
t-26.5 -147t26.5 -146.5t75.5 -92.5t117 -32zM433 785q-20 0 -37 7t-35 21q-15 13 -24.5 18.5t-22.5 5.5q-17 0 -28.5 -12t-13.5 -47h-59q1 61 28.5 93.5t71.5 32.5q24 0 42 -8t36 -22q14 -12 24.5 -17t21.5 -5q18 0 28 12.5t12 48.5h60q-3 -60 -30 -94t-74 -34z" />
    <glyph glyph-name="Odieresis" unicode="&#xd6;" horiz-adv-x="751" 
d="M375 -16q-103 0 -177 44.5t-114 127.5t-40 198t40 198.5t114 128.5t177 45q104 0 178.5 -45t114 -128.5t39.5 -198.5t-39.5 -198t-114 -127.5t-178.5 -44.5zM375 83q69 0 118.5 32t75.5 92.5t26 146.5t-26 147t-75.5 93.5t-118.5 32.5q-68 0 -117 -32.5t-75.5 -93.5
t-26.5 -147t26.5 -146.5t75.5 -92.5t117 -32zM229 786v106h106v-106h-106zM416 786v106h107v-106h-107z" />
    <glyph glyph-name="multiply" unicode="&#xd7;" horiz-adv-x="515" 
d="M40 140l370 370l65 -66l-370 -369zM40 444l65 66l370 -370l-65 -65z" />
    <glyph glyph-name="Oslash" unicode="&#xd8;" horiz-adv-x="751" 
d="M375 -16q-103 0 -177 44.5t-114 127.5t-40 198t40 198.5t114 128.5t177 45q104 0 178.5 -45t114 -128.5t39.5 -198.5t-39.5 -198t-114 -127.5t-178.5 -44.5zM375 83q69 0 118.5 32t75.5 92.5t26 146.5t-26 147t-75.5 93.5t-118.5 32.5q-68 0 -117 -32.5t-75.5 -93.5
t-26.5 -147t26.5 -146.5t75.5 -92.5t117 -32zM74 -16l510 742h93l-510 -742h-93z" />
    <glyph glyph-name="Ugrave" unicode="&#xd9;" horiz-adv-x="694" 
d="M347 -16q-84 0 -146.5 32.5t-96 92.5t-33.5 142v460h108v-460q0 -81 44 -124.5t124 -43.5t124 43.5t44 124.5v460h108v-460q0 -82 -33.5 -142t-95.5 -92.5t-147 -32.5zM311 779l-90 135h111l63 -135h-84z" />
    <glyph glyph-name="Uacute" unicode="&#xda;" horiz-adv-x="694" 
d="M347 -16q-84 0 -146.5 32.5t-96 92.5t-33.5 142v460h108v-460q0 -81 44 -124.5t124 -43.5t124 43.5t44 124.5v460h108v-460q0 -82 -33.5 -142t-95.5 -92.5t-147 -32.5zM300 774l63 134h111l-90 -134h-84z" />
    <glyph glyph-name="Ucircumflex" unicode="&#xdb;" horiz-adv-x="694" 
d="M347 -16q-84 0 -146.5 32.5t-96 92.5t-33.5 142v460h108v-460q0 -81 44 -124.5t124 -43.5t124 43.5t44 124.5v460h108v-460q0 -82 -33.5 -142t-95.5 -92.5t-147 -32.5zM200 774l92 139h110l92 -139h-81l-76 103h20l-76 -103h-81z" />
    <glyph glyph-name="Udieresis" unicode="&#xdc;" horiz-adv-x="694" 
d="M347 -16q-84 0 -146.5 32.5t-96 92.5t-33.5 142v460h108v-460q0 -81 44 -124.5t124 -43.5t124 43.5t44 124.5v460h108v-460q0 -82 -33.5 -142t-95.5 -92.5t-147 -32.5zM201 786v106h106v-106h-106zM388 786v106h107v-106h-107z" />
    <glyph glyph-name="Yacute" unicode="&#xdd;" horiz-adv-x="594" 
d="M243 0v285l-249 425h124l179 -317l180 317h124l-250 -425v-285h-108zM250 774l63 134h111l-90 -134h-84z" />
    <glyph glyph-name="Thorn" unicode="&#xde;" horiz-adv-x="627" 
d="M119 150v98h203q72 0 108.5 29.5t36.5 88.5t-36.5 88t-108.5 29h-203v99h204q121 0 188.5 -57t67.5 -159t-67.5 -159t-188.5 -57h-204zM86 0v710h108v-710h-108z" />
    <glyph glyph-name="germandbls" unicode="&#xdf;" horiz-adv-x="610" 
d="M75 0v489q0 72 28.5 124t81 79.5t124.5 27.5q104 0 162 -51t58 -136q0 -68 -45 -111.5t-120 -48.5l-1 17q63 -3 110.5 -27.5t73.5 -66.5t26 -96q0 -93 -68 -146.5t-193 -53.5h-64v95h64q73 0 112 28t39 86q0 38 -17.5 65t-53.5 40.5t-89 13.5h-46v94h43q57 0 89.5 28.5
t32.5 76.5q0 44 -28 71t-85 27q-59 0 -93.5 -36t-34.5 -100v-489h-106z" />
    <glyph glyph-name="agrave" unicode="&#xe0;" horiz-adv-x="565" 
d="M224 -12q-83 0 -132.5 38t-49.5 107t41.5 107.5t128.5 55.5l183 35q0 62 -29 92.5t-86 30.5q-51 0 -80 -22.5t-40 -66.5l-109 7q15 80 74.5 126t154.5 46q108 0 164.5 -57.5t56.5 -161.5v-207q0 -19 6.5 -26.5t21.5 -7.5h19v-84q-5 -1 -16 -2t-23 -1q-34 0 -58.5 11
t-36.5 36.5t-12 68.5l11 -5q-8 -35 -34.5 -62t-67 -42.5t-87.5 -15.5zM241 72q48 0 82 18.5t53 51.5t19 75v34l-156 -30q-48 -9 -67.5 -28.5t-19.5 -49.5q0 -34 23.5 -52.5t65.5 -18.5zM248 601l-90 135h111l63 -135h-84z" />
    <glyph glyph-name="aacute" unicode="&#xe1;" horiz-adv-x="565" 
d="M224 -12q-83 0 -132.5 38t-49.5 107t41.5 107.5t128.5 55.5l183 35q0 62 -29 92.5t-86 30.5q-51 0 -80 -22.5t-40 -66.5l-109 7q15 80 74.5 126t154.5 46q108 0 164.5 -57.5t56.5 -161.5v-207q0 -19 6.5 -26.5t21.5 -7.5h19v-84q-5 -1 -16 -2t-23 -1q-34 0 -58.5 11
t-36.5 36.5t-12 68.5l11 -5q-8 -35 -34.5 -62t-67 -42.5t-87.5 -15.5zM241 72q48 0 82 18.5t53 51.5t19 75v34l-156 -30q-48 -9 -67.5 -28.5t-19.5 -49.5q0 -34 23.5 -52.5t65.5 -18.5zM237 596l63 134h111l-90 -134h-84z" />
    <glyph glyph-name="acircumflex" unicode="&#xe2;" horiz-adv-x="565" 
d="M224 -12q-83 0 -132.5 38t-49.5 107t41.5 107.5t128.5 55.5l183 35q0 62 -29 92.5t-86 30.5q-51 0 -80 -22.5t-40 -66.5l-109 7q15 80 74.5 126t154.5 46q108 0 164.5 -57.5t56.5 -161.5v-207q0 -19 6.5 -26.5t21.5 -7.5h19v-84q-5 -1 -16 -2t-23 -1q-34 0 -58.5 11
t-36.5 36.5t-12 68.5l11 -5q-8 -35 -34.5 -62t-67 -42.5t-87.5 -15.5zM241 72q48 0 82 18.5t53 51.5t19 75v34l-156 -30q-48 -9 -67.5 -28.5t-19.5 -49.5q0 -34 23.5 -52.5t65.5 -18.5zM137 596l92 139h110l92 -139h-81l-76 103h20l-76 -103h-81z" />
    <glyph glyph-name="atilde" unicode="&#xe3;" horiz-adv-x="565" 
d="M224 -12q-83 0 -132.5 38t-49.5 107t41.5 107.5t128.5 55.5l183 35q0 62 -29 92.5t-86 30.5q-51 0 -80 -22.5t-40 -66.5l-109 7q15 80 74.5 126t154.5 46q108 0 164.5 -57.5t56.5 -161.5v-207q0 -19 6.5 -26.5t21.5 -7.5h19v-84q-5 -1 -16 -2t-23 -1q-34 0 -58.5 11
t-36.5 36.5t-12 68.5l11 -5q-8 -35 -34.5 -62t-67 -42.5t-87.5 -15.5zM241 72q48 0 82 18.5t53 51.5t19 75v34l-156 -30q-48 -9 -67.5 -28.5t-19.5 -49.5q0 -34 23.5 -52.5t65.5 -18.5zM342 607q-20 0 -37 7t-35 21q-15 13 -24.5 18.5t-22.5 5.5q-17 0 -28.5 -12t-13.5 -47
h-59q1 61 28.5 93.5t71.5 32.5q24 0 42 -8t36 -22q14 -12 24.5 -17t21.5 -5q18 0 28 12.5t12 48.5h60q-3 -60 -30 -94t-74 -34z" />
    <glyph glyph-name="adieresis" unicode="&#xe4;" horiz-adv-x="565" 
d="M224 -12q-83 0 -132.5 38t-49.5 107t41.5 107.5t128.5 55.5l183 35q0 62 -29 92.5t-86 30.5q-51 0 -80 -22.5t-40 -66.5l-109 7q15 80 74.5 126t154.5 46q108 0 164.5 -57.5t56.5 -161.5v-207q0 -19 6.5 -26.5t21.5 -7.5h19v-84q-5 -1 -16 -2t-23 -1q-34 0 -58.5 11
t-36.5 36.5t-12 68.5l11 -5q-8 -35 -34.5 -62t-67 -42.5t-87.5 -15.5zM241 72q48 0 82 18.5t53 51.5t19 75v34l-156 -30q-48 -9 -67.5 -28.5t-19.5 -49.5q0 -34 23.5 -52.5t65.5 -18.5zM138 608v106h106v-106h-106zM325 608v106h107v-106h-107z" />
    <glyph glyph-name="aring" unicode="&#xe5;" horiz-adv-x="565" 
d="M224 -12q-83 0 -132.5 38t-49.5 107t41.5 107.5t128.5 55.5l183 35q0 62 -29 92.5t-86 30.5q-51 0 -80 -22.5t-40 -66.5l-109 7q15 80 74.5 126t154.5 46q108 0 164.5 -57.5t56.5 -161.5v-207q0 -19 6.5 -26.5t21.5 -7.5h19v-84q-5 -1 -16 -2t-23 -1q-34 0 -58.5 11
t-36.5 36.5t-12 68.5l11 -5q-8 -35 -34.5 -62t-67 -42.5t-87.5 -15.5zM241 72q48 0 82 18.5t53 51.5t19 75v34l-156 -30q-48 -9 -67.5 -28.5t-19.5 -49.5q0 -34 23.5 -52.5t65.5 -18.5zM284 576q-40 0 -67.5 27t-27.5 68q0 40 27.5 67.5t67.5 27.5q41 0 68.5 -27.5
t27.5 -67.5q0 -41 -27.5 -68t-68.5 -27zM284 630q18 0 29.5 11.5t11.5 29.5q0 17 -11.5 28.5t-29.5 11.5q-17 0 -28.5 -11.5t-11.5 -28.5q0 -18 11.5 -29.5t28.5 -11.5z" />
    <glyph glyph-name="ae" unicode="&#xe6;" horiz-adv-x="932" 
d="M225 -12q-80 0 -131.5 37t-51.5 108q0 54 23 87t62 51t85 25l183 27q-1 68 -29 99.5t-88 31.5q-51 0 -80 -24.5t-38 -64.5l-109 7q16 80 75 126t151 46q107 0 166 -56t58 -170l-41 -151q-10 -55 -41.5 -95.5t-81 -62t-112.5 -21.5zM255 71q40 2 71.5 19t50 48.5
t18.5 77.5v27l-156 -22q-52 -7 -69.5 -28.5t-17.5 -49.5q0 -35 25 -54.5t78 -17.5zM650 -12q-77 0 -133.5 34t-87.5 97t-31 147t31 146.5t86.5 97t131.5 34.5q73 0 128 -33.5t85.5 -96.5t30.5 -152v-27h-383q5 -78 42.5 -117t100.5 -39q47 0 78 22t43 59l111 -7
q-21 -74 -83 -119.5t-150 -45.5zM508 315h270q-5 71 -40.5 105t-90.5 34q-56 0 -92.5 -35.5t-46.5 -103.5z" />
    <glyph glyph-name="ccedilla" unicode="&#xe7;" horiz-adv-x="563" 
d="M294 -12q-76 0 -133 34t-88 97t-31 147t31 146.5t88 97t133 34.5q65 0 115.5 -22.5t82 -65.5t40.5 -105l-111 -6q-8 52 -42 79.5t-85 27.5q-67 0 -104.5 -49.5t-37.5 -136.5t37.5 -136.5t104.5 -49.5q51 0 85 28.5t42 86.5l111 -6q-9 -61 -40.5 -106t-82 -70t-115.5 -25z
M285 -224q-48 0 -78.5 22.5t-41.5 57.5l56 22q8 -21 23 -30.5t39 -9.5q25 0 38.5 10t13.5 28q0 19 -13.5 31t-58.5 12l-33 33l37 58h71l-32 -44q50 -3 73 -28.5t23 -63.5q0 -31 -15.5 -52.5t-41.5 -33.5t-60 -12z" />
    <glyph glyph-name="egrave" unicode="&#xe8;" horiz-adv-x="576" 
d="M294 -12q-78 0 -134.5 34t-87 97t-30.5 147t30.5 146.5t86.5 97t132 34.5q72 0 127 -33.5t85.5 -96.5t30.5 -152v-27h-382q4 -78 41.5 -117t101.5 -39q47 0 78 22t43 59l110 -7q-21 -74 -82.5 -119.5t-149.5 -45.5zM152 315h270q-5 71 -40.5 105t-90.5 34
q-57 0 -93.5 -35.5t-45.5 -103.5zM258 599l-90 135h111l63 -135h-84z" />
    <glyph glyph-name="eacute" unicode="&#xe9;" horiz-adv-x="576" 
d="M294 -12q-78 0 -134.5 34t-87 97t-30.5 147t30.5 146.5t86.5 97t132 34.5q72 0 127 -33.5t85.5 -96.5t30.5 -152v-27h-382q4 -78 41.5 -117t101.5 -39q47 0 78 22t43 59l110 -7q-21 -74 -82.5 -119.5t-149.5 -45.5zM152 315h270q-5 71 -40.5 105t-90.5 34
q-57 0 -93.5 -35.5t-45.5 -103.5zM247 594l63 134h111l-90 -134h-84z" />
    <glyph glyph-name="ecircumflex" unicode="&#xea;" horiz-adv-x="576" 
d="M294 -12q-78 0 -134.5 34t-87 97t-30.5 147t30.5 146.5t86.5 97t132 34.5q72 0 127 -33.5t85.5 -96.5t30.5 -152v-27h-382q4 -78 41.5 -117t101.5 -39q47 0 78 22t43 59l110 -7q-21 -74 -82.5 -119.5t-149.5 -45.5zM152 315h270q-5 71 -40.5 105t-90.5 34
q-57 0 -93.5 -35.5t-45.5 -103.5zM147 594l92 139h110l92 -139h-81l-76 103h20l-76 -103h-81z" />
    <glyph glyph-name="edieresis" unicode="&#xeb;" horiz-adv-x="576" 
d="M294 -12q-78 0 -134.5 34t-87 97t-30.5 147t30.5 146.5t86.5 97t132 34.5q72 0 127 -33.5t85.5 -96.5t30.5 -152v-27h-382q4 -78 41.5 -117t101.5 -39q47 0 78 22t43 59l110 -7q-21 -74 -82.5 -119.5t-149.5 -45.5zM152 315h270q-5 71 -40.5 105t-90.5 34
q-57 0 -93.5 -35.5t-45.5 -103.5zM148 606v106h106v-106h-106zM335 606v106h107v-106h-107z" />
    <glyph glyph-name="igrave" unicode="&#xec;" horiz-adv-x="256" 
d="M75 0v532h106v-532h-106zM92 601l-90 135h111l63 -135h-84z" />
    <glyph glyph-name="iacute" unicode="&#xed;" horiz-adv-x="256" 
d="M75 0v532h106v-532h-106zM81 596l63 134h111l-90 -134h-84z" />
    <glyph glyph-name="icircumflex" unicode="&#xee;" horiz-adv-x="256" 
d="M75 0v532h106v-532h-106zM-19 596l92 139h110l92 -139h-81l-76 103h20l-76 -103h-81z" />
    <glyph glyph-name="idieresis" unicode="&#xef;" horiz-adv-x="256" 
d="M75 0v532h106v-532h-106zM-18 608v106h106v-106h-106zM169 608v106h107v-106h-107z" />
    <glyph glyph-name="eth" unicode="&#xf0;" horiz-adv-x="588" 
d="M236 518l-25 65l317 120l25 -66zM448 275q0 117 -29 195.5t-91 119.5t-160 49l27 83q96 -10 163.5 -48.5t109 -101t60 -142.5t18.5 -172zM294 -12q-78 0 -135 30.5t-87 87.5t-30 136t30 135.5t87 87t135 30.5q55 0 101 -22.5t80 -59t52.5 -77.5t18.5 -78q0 -130 -67 -200
t-185 -70zM294 79q68 0 105 43t37 128q0 70 -37 112t-105 42q-67 0 -104.5 -42.5t-37.5 -119.5q0 -78 37.5 -120.5t104.5 -42.5z" />
    <glyph glyph-name="ntilde" unicode="&#xf1;" horiz-adv-x="591" 
d="M75 0v532h97l4 -142l-13 7q9 52 34 84t61 47.5t78 15.5q60 0 99.5 -26.5t60 -72t20.5 -103.5v-342h-106v310q0 47 -10 79t-33 49t-60 17q-56 0 -91 -37t-35 -108v-310h-106zM354 607q-20 0 -37 7t-35 21q-15 13 -24.5 18.5t-22.5 5.5q-17 0 -28.5 -12t-13.5 -47h-59
q1 61 28.5 93.5t71.5 32.5q24 0 42 -8t36 -22q14 -12 24.5 -17t21.5 -5q18 0 28 12.5t12 48.5h60q-3 -60 -30 -94t-74 -34z" />
    <glyph glyph-name="ograve" unicode="&#xf2;" horiz-adv-x="588" 
d="M294 -12q-76 0 -133 34t-88 97t-31 147q0 85 31 147t88 96.5t133 34.5t133 -34.5t88 -96.5t31 -147q0 -84 -31 -147t-88 -97t-133 -34zM294 80q68 0 105 49.5t37 136.5t-37 136.5t-105 49.5q-67 0 -104.5 -49.5t-37.5 -136.5t37.5 -136.5t104.5 -49.5zM258 601l-90 135
h111l63 -135h-84z" />
    <glyph glyph-name="oacute" unicode="&#xf3;" horiz-adv-x="588" 
d="M294 -12q-76 0 -133 34t-88 97t-31 147q0 85 31 147t88 96.5t133 34.5t133 -34.5t88 -96.5t31 -147q0 -84 -31 -147t-88 -97t-133 -34zM294 80q68 0 105 49.5t37 136.5t-37 136.5t-105 49.5q-67 0 -104.5 -49.5t-37.5 -136.5t37.5 -136.5t104.5 -49.5zM247 596l63 134
h111l-90 -134h-84z" />
    <glyph glyph-name="ocircumflex" unicode="&#xf4;" horiz-adv-x="588" 
d="M294 -12q-76 0 -133 34t-88 97t-31 147q0 85 31 147t88 96.5t133 34.5t133 -34.5t88 -96.5t31 -147q0 -84 -31 -147t-88 -97t-133 -34zM294 80q68 0 105 49.5t37 136.5t-37 136.5t-105 49.5q-67 0 -104.5 -49.5t-37.5 -136.5t37.5 -136.5t104.5 -49.5zM147 596l92 139
h110l92 -139h-81l-76 103h20l-76 -103h-81z" />
    <glyph glyph-name="otilde" unicode="&#xf5;" horiz-adv-x="588" 
d="M294 -12q-76 0 -133 34t-88 97t-31 147q0 85 31 147t88 96.5t133 34.5t133 -34.5t88 -96.5t31 -147q0 -84 -31 -147t-88 -97t-133 -34zM294 80q68 0 105 49.5t37 136.5t-37 136.5t-105 49.5q-67 0 -104.5 -49.5t-37.5 -136.5t37.5 -136.5t104.5 -49.5zM352 607
q-20 0 -37 7t-35 21q-15 13 -24.5 18.5t-22.5 5.5q-17 0 -28.5 -12t-13.5 -47h-59q1 61 28.5 93.5t71.5 32.5q24 0 42 -8t36 -22q14 -12 24.5 -17t21.5 -5q18 0 28 12.5t12 48.5h60q-3 -60 -30 -94t-74 -34z" />
    <glyph glyph-name="odieresis" unicode="&#xf6;" horiz-adv-x="588" 
d="M294 -12q-76 0 -133 34t-88 97t-31 147q0 85 31 147t88 96.5t133 34.5t133 -34.5t88 -96.5t31 -147q0 -84 -31 -147t-88 -97t-133 -34zM294 80q68 0 105 49.5t37 136.5t-37 136.5t-105 49.5q-67 0 -104.5 -49.5t-37.5 -136.5t37.5 -136.5t104.5 -49.5zM148 608v106h106
v-106h-106zM335 608v106h107v-106h-107z" />
    <glyph glyph-name="divide" unicode="&#xf7;" horiz-adv-x="548" 
d="M274 39q-32 0 -51 19.5t-19 48.5q0 30 19 49t51 19t51 -19t19 -49q0 -29 -19 -48.5t-51 -19.5zM274 409q-32 0 -51 19t-19 49q0 29 19 48.5t51 19.5t51 -19.5t19 -48.5q0 -30 -19 -49t-51 -19zM40 247v90h468v-90h-468z" />
    <glyph glyph-name="oslash" unicode="&#xf8;" horiz-adv-x="588" 
d="M294 -12q-76 0 -133 34t-88 97t-31 147q0 85 31 147t88 96.5t133 34.5t133 -34.5t88 -96.5t31 -147q0 -84 -31 -147t-88 -97t-133 -34zM294 80q68 0 105 49.5t37 136.5t-37 136.5t-105 49.5q-67 0 -104.5 -49.5t-37.5 -136.5t37.5 -136.5t104.5 -49.5zM62 -14l384 560h80
l-384 -560h-80z" />
    <glyph glyph-name="ugrave" unicode="&#xf9;" horiz-adv-x="586" 
d="M250 -12q-80 0 -127.5 53.5t-47.5 148.5v342h106v-315q0 -72 25 -106t76 -34q58 0 90.5 37.5t32.5 105.5v312h106v-532h-99l-2 139l15 -6q-14 -70 -59 -107.5t-116 -37.5zM254 601l-90 135h111l63 -135h-84z" />
    <glyph glyph-name="uacute" unicode="&#xfa;" horiz-adv-x="586" 
d="M250 -12q-80 0 -127.5 53.5t-47.5 148.5v342h106v-315q0 -72 25 -106t76 -34q58 0 90.5 37.5t32.5 105.5v312h106v-532h-99l-2 139l15 -6q-14 -70 -59 -107.5t-116 -37.5zM243 596l63 134h111l-90 -134h-84z" />
    <glyph glyph-name="ucircumflex" unicode="&#xfb;" horiz-adv-x="586" 
d="M250 -12q-80 0 -127.5 53.5t-47.5 148.5v342h106v-315q0 -72 25 -106t76 -34q58 0 90.5 37.5t32.5 105.5v312h106v-532h-99l-2 139l15 -6q-14 -70 -59 -107.5t-116 -37.5zM143 596l92 139h110l92 -139h-81l-76 103h20l-76 -103h-81z" />
    <glyph glyph-name="udieresis" unicode="&#xfc;" horiz-adv-x="586" 
d="M250 -12q-80 0 -127.5 53.5t-47.5 148.5v342h106v-315q0 -72 25 -106t76 -34q58 0 90.5 37.5t32.5 105.5v312h106v-532h-99l-2 139l15 -6q-14 -70 -59 -107.5t-116 -37.5zM143 608v106h106v-106h-106zM330 608v106h107v-106h-107z" />
    <glyph glyph-name="yacute" unicode="&#xfd;" horiz-adv-x="553" 
d="M105 -150v87h65q27 0 40 8t20 27l17 44h-33l-192 516h112l146 -418l139 418h113l-212 -594q-16 -46 -47.5 -67t-87.5 -21h-80zM230 596l63 134h111l-90 -134h-84z" />
    <glyph glyph-name="thorn" unicode="&#xfe;" horiz-adv-x="605" 
d="M75 -150v860h108v-238q22 34 60 53t92 19q77 0 127.5 -38.5t75.5 -101.5t25 -138t-25 -138t-75.5 -101.5t-127.5 -38.5q-52 0 -90 18.5t-62 51.5v-208h-108zM313 83q50 0 80.5 26t45 68t14.5 89q0 50 -14.5 92t-45 68t-80.5 26q-48 0 -79 -26.5t-45.5 -68.5t-14.5 -91
q0 -46 14.5 -88t45.5 -68.5t79 -26.5z" />
    <glyph glyph-name="ydieresis" unicode="&#xff;" horiz-adv-x="553" 
d="M105 -150v87h65q27 0 40 8t20 27l17 44h-33l-192 516h112l146 -418l139 418h113l-212 -594q-16 -46 -47.5 -67t-87.5 -21h-80zM131 608v106h106v-106h-106zM318 608v106h107v-106h-107z" />
    <glyph glyph-name="Amacron" unicode="&#x100;" horiz-adv-x="689" 
d="M20 0l256 710h137l256 -710h-115l-65 185h-290l-64 -185h-115zM233 283h223l-112 324zM206 797v85h278v-85h-278z" />
    <glyph glyph-name="amacron" unicode="&#x101;" horiz-adv-x="565" 
d="M224 -12q-83 0 -132.5 38t-49.5 107t41.5 107.5t128.5 55.5l183 35q0 62 -29 92.5t-86 30.5q-51 0 -80 -22.5t-40 -66.5l-109 7q15 80 74.5 126t154.5 46q108 0 164.5 -57.5t56.5 -161.5v-207q0 -19 6.5 -26.5t21.5 -7.5h19v-84q-5 -1 -16 -2t-23 -1q-34 0 -58.5 11
t-36.5 36.5t-12 68.5l11 -5q-8 -35 -34.5 -62t-67 -42.5t-87.5 -15.5zM241 72q48 0 82 18.5t53 51.5t19 75v34l-156 -30q-48 -9 -67.5 -28.5t-19.5 -49.5q0 -34 23.5 -52.5t65.5 -18.5zM145 619v85h278v-85h-278z" />
    <glyph glyph-name="Abreve" unicode="&#x102;" horiz-adv-x="689" 
d="M20 0l256 710h137l256 -710h-115l-65 185h-290l-64 -185h-115zM233 283h223l-112 324zM344 777q-64 0 -103 36.5t-42 98.5h67q5 -34 25.5 -50t52.5 -16q34 0 54 16t23 50h68q-3 -62 -41.5 -98.5t-103.5 -36.5z" />
    <glyph glyph-name="abreve" unicode="&#x103;" horiz-adv-x="565" 
d="M224 -12q-83 0 -132.5 38t-49.5 107t41.5 107.5t128.5 55.5l183 35q0 62 -29 92.5t-86 30.5q-51 0 -80 -22.5t-40 -66.5l-109 7q15 80 74.5 126t154.5 46q108 0 164.5 -57.5t56.5 -161.5v-207q0 -19 6.5 -26.5t21.5 -7.5h19v-84q-5 -1 -16 -2t-23 -1q-34 0 -58.5 11
t-36.5 36.5t-12 68.5l11 -5q-8 -35 -34.5 -62t-67 -42.5t-87.5 -15.5zM241 72q48 0 82 18.5t53 51.5t19 75v34l-156 -30q-48 -9 -67.5 -28.5t-19.5 -49.5q0 -34 23.5 -52.5t65.5 -18.5zM284 599q-64 0 -103 36.5t-42 98.5h67q5 -34 25.5 -50t52.5 -16q34 0 54 16t23 50h68
q-3 -62 -41.5 -98.5t-103.5 -36.5z" />
    <glyph glyph-name="Aogonek" unicode="&#x104;" horiz-adv-x="689" 
d="M20 0l256 710h137l256 -710h-115l-65 185h-290l-64 -185h-115zM233 283h223l-112 324zM611 -212q-46 0 -72.5 19t-26.5 56q0 29 17.5 59t36.5 57l31 41l72 -20l-34 -45q-17 -24 -24 -39t-7 -28q0 -12 8 -18.5t20 -6.5q14 0 26 3.5t21 9.5l25 -62q-12 -11 -38.5 -18.5
t-54.5 -7.5z" />
    <glyph glyph-name="aogonek" unicode="&#x105;" horiz-adv-x="565" 
d="M224 -12q-83 0 -132.5 38t-49.5 107t41.5 107.5t128.5 55.5l183 35q0 62 -29 92.5t-86 30.5q-51 0 -80 -22.5t-40 -66.5l-109 7q15 80 74.5 126t154.5 46q108 0 164.5 -57.5t56.5 -161.5v-207q0 -19 6.5 -26.5t21.5 -7.5h19v-84q-5 -1 -16 -2t-23 -1q-34 0 -58.5 11
t-36.5 36.5t-12 68.5l11 -5q-8 -35 -34.5 -62t-67 -42.5t-87.5 -15.5zM241 72q48 0 82 18.5t53 51.5t19 75v34l-156 -30q-48 -9 -67.5 -28.5t-19.5 -49.5q0 -34 23.5 -52.5t65.5 -18.5zM491 -212q-46 0 -72.5 19t-26.5 56q0 29 17.5 59t36.5 57l31 41l72 -20l-34 -45
q-17 -24 -24 -39t-7 -28q0 -12 8 -18.5t20 -6.5q14 0 26 3.5t21 9.5l25 -62q-12 -11 -38.5 -18.5t-54.5 -7.5z" />
    <glyph glyph-name="Cacute" unicode="&#x106;" horiz-adv-x="713" 
d="M368 -16q-96 0 -169 44.5t-114 127.5t-41 198q0 114 40.5 197.5t113.5 129t171 45.5q132 0 205 -66t95 -183l-113 -6q-14 73 -60 114.5t-127 41.5q-65 0 -112.5 -33t-74 -94t-26.5 -146t26.5 -146t74.5 -93t111 -32q86 0 133.5 45.5t59.5 125.5l113 -6q-13 -81 -52 -140
t-103 -91.5t-151 -32.5zM320 774l63 134h111l-90 -134h-84z" />
    <glyph glyph-name="cacute" unicode="&#x107;" horiz-adv-x="563" 
d="M294 -12q-76 0 -133 34t-88 97t-31 147t31 146.5t88 97t133 34.5q65 0 115.5 -22.5t82 -65.5t40.5 -105l-111 -6q-8 52 -42 79.5t-85 27.5q-67 0 -104.5 -49.5t-37.5 -136.5t37.5 -136.5t104.5 -49.5q51 0 85 28.5t42 86.5l111 -6q-9 -61 -40.5 -106t-82 -70t-115.5 -25z
M247 596l63 134h111l-90 -134h-84z" />
    <glyph glyph-name="Ccircumflex" unicode="&#x108;" horiz-adv-x="713" 
d="M368 -16q-96 0 -169 44.5t-114 127.5t-41 198q0 114 40.5 197.5t113.5 129t171 45.5q132 0 205 -66t95 -183l-113 -6q-14 73 -60 114.5t-127 41.5q-65 0 -112.5 -33t-74 -94t-26.5 -146t26.5 -146t74.5 -93t111 -32q86 0 133.5 45.5t59.5 125.5l113 -6q-13 -81 -52 -140
t-103 -91.5t-151 -32.5zM220 774l92 139h110l92 -139h-81l-76 103h20l-76 -103h-81z" />
    <glyph glyph-name="ccircumflex" unicode="&#x109;" horiz-adv-x="563" 
d="M294 -12q-76 0 -133 34t-88 97t-31 147t31 146.5t88 97t133 34.5q65 0 115.5 -22.5t82 -65.5t40.5 -105l-111 -6q-8 52 -42 79.5t-85 27.5q-67 0 -104.5 -49.5t-37.5 -136.5t37.5 -136.5t104.5 -49.5q51 0 85 28.5t42 86.5l111 -6q-9 -61 -40.5 -106t-82 -70t-115.5 -25z
M147 596l92 139h110l92 -139h-81l-76 103h20l-76 -103h-81z" />
    <glyph glyph-name="Cdotaccent" unicode="&#x10a;" horiz-adv-x="713" 
d="M368 -16q-96 0 -169 44.5t-114 127.5t-41 198q0 114 40.5 197.5t113.5 129t171 45.5q132 0 205 -66t95 -183l-113 -6q-14 73 -60 114.5t-127 41.5q-65 0 -112.5 -33t-74 -94t-26.5 -146t26.5 -146t74.5 -93t111 -32q86 0 133.5 45.5t59.5 125.5l113 -6q-13 -81 -52 -140
t-103 -91.5t-151 -32.5zM312 787v106h110v-106h-110z" />
    <glyph glyph-name="cdotaccent" unicode="&#x10b;" horiz-adv-x="563" 
d="M294 -12q-76 0 -133 34t-88 97t-31 147t31 146.5t88 97t133 34.5q65 0 115.5 -22.5t82 -65.5t40.5 -105l-111 -6q-8 52 -42 79.5t-85 27.5q-67 0 -104.5 -49.5t-37.5 -136.5t37.5 -136.5t104.5 -49.5q51 0 85 28.5t42 86.5l111 -6q-9 -61 -40.5 -106t-82 -70t-115.5 -25z
M240 609v106h110v-106h-110z" />
    <glyph glyph-name="Ccaron" unicode="&#x10c;" horiz-adv-x="713" 
d="M368 -16q-96 0 -169 44.5t-114 127.5t-41 198q0 114 40.5 197.5t113.5 129t171 45.5q132 0 205 -66t95 -183l-113 -6q-14 73 -60 114.5t-127 41.5q-65 0 -112.5 -33t-74 -94t-26.5 -146t26.5 -146t74.5 -93t111 -32q86 0 133.5 45.5t59.5 125.5l113 -6q-13 -81 -52 -140
t-103 -91.5t-151 -32.5zM220 913h81l76 -103h-20l76 103h81l-92 -139h-110z" />
    <glyph glyph-name="ccaron" unicode="&#x10d;" horiz-adv-x="563" 
d="M294 -12q-76 0 -133 34t-88 97t-31 147t31 146.5t88 97t133 34.5q65 0 115.5 -22.5t82 -65.5t40.5 -105l-111 -6q-8 52 -42 79.5t-85 27.5q-67 0 -104.5 -49.5t-37.5 -136.5t37.5 -136.5t104.5 -49.5q51 0 85 28.5t42 86.5l111 -6q-9 -61 -40.5 -106t-82 -70t-115.5 -25z
M147 735h81l76 -103h-20l76 103h81l-92 -139h-110z" />
    <glyph glyph-name="Dcaron" unicode="&#x10e;" horiz-adv-x="705" 
d="M86 0v710h228q167 0 257 -92.5t90 -263.5q0 -170 -88.5 -262t-252.5 -92h-234zM194 99h120q118 0 176.5 63.5t58.5 191.5q0 130 -58.5 193.5t-176.5 63.5h-120v-512zM177 913h81l76 -103h-20l76 103h81l-92 -139h-110z" />
    <glyph glyph-name="dcaron" unicode="&#x10f;" horiz-adv-x="688" 
d="M264 -12q-68 0 -118.5 34t-77 96.5t-26.5 147.5t27 147.5t77 96.5t118 34q55 0 98 -23t65 -64v253h106v-710h-99l-3 80q-22 -43 -66.5 -67.5t-100.5 -24.5zM292 80q43 0 73 22t46 64t16 100q0 60 -16 101.5t-46 63t-73 21.5q-64 0 -102 -49.5t-38 -136.5q0 -86 38 -136
t102 -50zM583 445l30 265h99l-53 -265h-76z" />
    <glyph glyph-name="Dcroat" unicode="&#x110;" horiz-adv-x="705" 
d="M86 0v710h228q167 0 257 -92.5t90 -263.5q0 -170 -88.5 -262t-252.5 -92h-234zM194 99h120q118 0 176.5 63.5t58.5 191.5q0 130 -58.5 193.5t-176.5 63.5h-120v-512zM16 310v90h374v-90h-374z" />
    <glyph glyph-name="dcroat" unicode="&#x111;" horiz-adv-x="608" 
d="M264 -12q-68 0 -118.5 34t-77 96.5t-26.5 147.5t27 147.5t77 96.5t118 34q55 0 98 -23t65 -64v253h106v-710h-99l-3 80q-22 -43 -66.5 -67.5t-100.5 -24.5zM292 80q43 0 73 22t46 64t16 100q0 60 -16 101.5t-46 63t-73 21.5q-64 0 -102 -49.5t-38 -136.5q0 -86 38 -136
t102 -50zM283 580v75h316v-75h-316z" />
    <glyph glyph-name="Emacron" unicode="&#x112;" horiz-adv-x="609" 
d="M86 0v710h462v-99h-354v-207h342v-96h-342v-209h362v-99h-470zM180 797v85h278v-85h-278z" />
    <glyph glyph-name="emacron" unicode="&#x113;" horiz-adv-x="576" 
d="M294 -12q-78 0 -134.5 34t-87 97t-30.5 147t30.5 146.5t86.5 97t132 34.5q72 0 127 -33.5t85.5 -96.5t30.5 -152v-27h-382q4 -78 41.5 -117t101.5 -39q47 0 78 22t43 59l110 -7q-21 -74 -82.5 -119.5t-149.5 -45.5zM152 315h270q-5 71 -40.5 105t-90.5 34
q-57 0 -93.5 -35.5t-45.5 -103.5zM156 617v85h278v-85h-278z" />
    <glyph glyph-name="Edotaccent" unicode="&#x116;" horiz-adv-x="609" 
d="M86 0v710h462v-99h-354v-207h342v-96h-342v-209h362v-99h-470zM264 787v106h110v-106h-110z" />
    <glyph glyph-name="edotaccent" unicode="&#x117;" horiz-adv-x="576" 
d="M294 -12q-78 0 -134.5 34t-87 97t-30.5 147t30.5 146.5t86.5 97t132 34.5q72 0 127 -33.5t85.5 -96.5t30.5 -152v-27h-382q4 -78 41.5 -117t101.5 -39q47 0 78 22t43 59l110 -7q-21 -74 -82.5 -119.5t-149.5 -45.5zM152 315h270q-5 71 -40.5 105t-90.5 34
q-57 0 -93.5 -35.5t-45.5 -103.5zM240 607v106h110v-106h-110z" />
    <glyph glyph-name="Eogonek" unicode="&#x118;" horiz-adv-x="609" 
d="M86 0v710h462v-99h-354v-207h342v-96h-342v-209h362v-99h-470zM498 -212q-46 0 -72.5 19t-26.5 56q0 29 17.5 59t36.5 57l31 41l72 -20l-34 -45q-17 -24 -24 -39t-7 -28q0 -12 8 -18.5t20 -6.5q14 0 26 3.5t21 9.5l25 -62q-12 -11 -38.5 -18.5t-54.5 -7.5z" />
    <glyph glyph-name="eogonek" unicode="&#x119;" horiz-adv-x="576" 
d="M373 -212q-47 0 -72.5 23t-25.5 63q0 32 12 58t34 50l84 96l79 -10l-85 -103q-18 -22 -26 -39.5t-8 -32.5t8 -22.5t20 -7.5q14 0 25.5 3.5t21.5 9.5l25 -62q-12 -11 -38 -18.5t-54 -7.5zM294 -12q-78 0 -134.5 34t-87 97t-30.5 147t30.5 146.5t86.5 97t132 34.5
q72 0 127 -33.5t85.5 -96.5t30.5 -152v-27h-382q4 -78 41.5 -117t101.5 -39q47 0 78 22t43 59l110 -7q-21 -74 -82.5 -119.5t-149.5 -45.5zM152 315h270q-5 71 -40.5 105t-90.5 34q-57 0 -93.5 -35.5t-45.5 -103.5z" />
    <glyph glyph-name="Ecaron" unicode="&#x11a;" horiz-adv-x="609" 
d="M86 0v710h462v-99h-354v-207h342v-96h-342v-209h362v-99h-470zM172 913h81l76 -103h-20l76 103h81l-92 -139h-110z" />
    <glyph glyph-name="ecaron" unicode="&#x11b;" horiz-adv-x="576" 
d="M294 -12q-78 0 -134.5 34t-87 97t-30.5 147t30.5 146.5t86.5 97t132 34.5q72 0 127 -33.5t85.5 -96.5t30.5 -152v-27h-382q4 -78 41.5 -117t101.5 -39q47 0 78 22t43 59l110 -7q-21 -74 -82.5 -119.5t-149.5 -45.5zM152 315h270q-5 71 -40.5 105t-90.5 34
q-57 0 -93.5 -35.5t-45.5 -103.5zM147 733h81l76 -103h-20l76 103h81l-92 -139h-110z" />
    <glyph glyph-name="Gcircumflex" unicode="&#x11c;" horiz-adv-x="713" 
d="M365 -16q-101 0 -173 47.5t-110 131t-38 191.5q0 107 38.5 191t111.5 132.5t175 48.5q87 0 147.5 -31t96 -85t49.5 -123l-113 -6q-12 65 -54 105.5t-126 40.5q-74 0 -121 -37t-69.5 -99t-22.5 -137q0 -78 22.5 -139t70 -96.5t121.5 -35.5q58 0 100 25t65.5 68t25.5 95
h-190v91h293v-362h-74l-7 160l14 -12q-11 -48 -45 -85t-82.5 -58t-104.5 -21zM222 774l92 139h110l92 -139h-81l-76 103h20l-76 -103h-81z" />
    <glyph glyph-name="gcircumflex" unicode="&#x11d;" horiz-adv-x="607" 
d="M289 -162q-63 0 -111 19t-79 53.5t-42 80.5l110 7q11 -33 38.5 -52.5t83.5 -19.5q66 0 101.5 28t35.5 85v77q-19 -41 -61 -65t-94 -24q-67 0 -119 33t-81 91t-29 134q0 77 28.5 135t80 91t116.5 33q57 0 100.5 -26t62.5 -70v84h102v-490q0 -66 -29.5 -111.5t-84 -69
t-129.5 -23.5zM288 117q62 0 99.5 45t38.5 124q1 52 -16 89.5t-48.5 58t-73.5 20.5q-65 0 -100.5 -45.5t-35.5 -122.5q0 -78 36.5 -123.5t99.5 -45.5zM145 596l92 139h110l92 -139h-81l-76 103h20l-76 -103h-81z" />
    <glyph glyph-name="Gbreve" unicode="&#x11e;" horiz-adv-x="713" 
d="M365 -16q-101 0 -173 47.5t-110 131t-38 191.5q0 107 38.5 191t111.5 132.5t175 48.5q87 0 147.5 -31t96 -85t49.5 -123l-113 -6q-12 65 -54 105.5t-126 40.5q-74 0 -121 -37t-69.5 -99t-22.5 -137q0 -78 22.5 -139t70 -96.5t121.5 -35.5q58 0 100 25t65.5 68t25.5 95
h-190v91h293v-362h-74l-7 160l14 -12q-11 -48 -45 -85t-82.5 -58t-104.5 -21zM369 777q-64 0 -103 36.5t-42 98.5h67q5 -34 25.5 -50t52.5 -16q34 0 54 16t23 50h68q-3 -62 -41.5 -98.5t-103.5 -36.5z" />
    <glyph glyph-name="gbreve" unicode="&#x11f;" horiz-adv-x="607" 
d="M289 -162q-63 0 -111 19t-79 53.5t-42 80.5l110 7q11 -33 38.5 -52.5t83.5 -19.5q66 0 101.5 28t35.5 85v77q-19 -41 -61 -65t-94 -24q-67 0 -119 33t-81 91t-29 134q0 77 28.5 135t80 91t116.5 33q57 0 100.5 -26t62.5 -70v84h102v-490q0 -66 -29.5 -111.5t-84 -69
t-129.5 -23.5zM288 117q62 0 99.5 45t38.5 124q1 52 -16 89.5t-48.5 58t-73.5 20.5q-65 0 -100.5 -45.5t-35.5 -122.5q0 -78 36.5 -123.5t99.5 -45.5zM292 599q-64 0 -103 36.5t-42 98.5h67q5 -34 25.5 -50t52.5 -16q34 0 54 16t23 50h68q-3 -62 -41.5 -98.5t-103.5 -36.5z
" />
    <glyph glyph-name="Gdotaccent" unicode="&#x120;" horiz-adv-x="713" 
d="M365 -16q-101 0 -173 47.5t-110 131t-38 191.5q0 107 38.5 191t111.5 132.5t175 48.5q87 0 147.5 -31t96 -85t49.5 -123l-113 -6q-12 65 -54 105.5t-126 40.5q-74 0 -121 -37t-69.5 -99t-22.5 -137q0 -78 22.5 -139t70 -96.5t121.5 -35.5q58 0 100 25t65.5 68t25.5 95
h-190v91h293v-362h-74l-7 160l14 -12q-11 -48 -45 -85t-82.5 -58t-104.5 -21zM315 787v106h110v-106h-110z" />
    <glyph glyph-name="gdotaccent" unicode="&#x121;" horiz-adv-x="607" 
d="M289 -162q-63 0 -111 19t-79 53.5t-42 80.5l110 7q11 -33 38.5 -52.5t83.5 -19.5q66 0 101.5 28t35.5 85v77q-19 -41 -61 -65t-94 -24q-67 0 -119 33t-81 91t-29 134q0 77 28.5 135t80 91t116.5 33q57 0 100.5 -26t62.5 -70v84h102v-490q0 -66 -29.5 -111.5t-84 -69
t-129.5 -23.5zM288 117q62 0 99.5 45t38.5 124q1 52 -16 89.5t-48.5 58t-73.5 20.5q-65 0 -100.5 -45.5t-35.5 -122.5q0 -78 36.5 -123.5t99.5 -45.5zM237 609v106h110v-106h-110z" />
    <glyph glyph-name="uni0122" unicode="&#x122;" horiz-adv-x="713" 
d="M365 -16q-101 0 -173 47.5t-110 131t-38 191.5q0 107 38.5 191t111.5 132.5t175 48.5q87 0 147.5 -31t96 -85t49.5 -123l-113 -6q-12 65 -54 105.5t-126 40.5q-74 0 -121 -37t-69.5 -99t-22.5 -137q0 -78 22.5 -139t70 -96.5t121.5 -35.5q58 0 100 25t65.5 68t25.5 95
h-190v91h293v-362h-74l-7 160l14 -12q-11 -48 -45 -85t-82.5 -58t-104.5 -21zM299 -244l54 94h-36v98h110v-89l-60 -103h-68z" />
    <glyph glyph-name="uni0123" unicode="&#x123;" horiz-adv-x="607" 
d="M289 -162q-63 0 -111 19t-79 53.5t-42 80.5l110 7q11 -33 38.5 -52.5t83.5 -19.5q66 0 101.5 28t35.5 85v77q-19 -41 -61 -65t-94 -24q-67 0 -119 33t-81 91t-29 134q0 77 28.5 135t80 91t116.5 33q57 0 100.5 -26t62.5 -70v84h102v-490q0 -66 -29.5 -111.5t-84 -69
t-129.5 -23.5zM288 117q62 0 99.5 45t38.5 124q1 52 -16 89.5t-48.5 58t-73.5 20.5q-65 0 -100.5 -45.5t-35.5 -122.5q0 -78 36.5 -123.5t99.5 -45.5zM236 599v90l60 103h68l-54 -94h36v-99h-110z" />
    <glyph glyph-name="Hcircumflex" unicode="&#x124;" horiz-adv-x="716" 
d="M86 0v710h108v-342l-52 38h432l-52 -38v342h108v-710h-108v346l52 -38h-432l52 38v-346h-108zM211 774l92 139h110l92 -139h-81l-76 103h20l-76 -103h-81z" />
    <glyph glyph-name="hcircumflex" unicode="&#x125;" horiz-adv-x="591" 
d="M75 0v710h106v-298l-13 2q9 45 33 73.5t59 42.5t77 14q58 0 98 -25.5t60.5 -71.5t20.5 -105v-342h-106v314q0 72 -24.5 106.5t-76.5 34.5q-58 0 -93 -36.5t-35 -106.5v-312h-106zM-18 754l92 139h110l92 -139h-81l-76 103h20l-76 -103h-81z" />
    <glyph glyph-name="Hbar" unicode="&#x126;" horiz-adv-x="716" 
d="M86 0v710h108v-342l-52 38h432l-52 -38v342h108v-710h-108v346l52 -38h-432l52 38v-346h-108zM12 526v90h692v-90h-692z" />
    <glyph glyph-name="hbar" unicode="&#x127;" horiz-adv-x="591" 
d="M75 0v710h106v-298l-13 2q9 45 33 73.5t59 42.5t77 14q58 0 98 -25.5t60.5 -71.5t20.5 -105v-342h-106v314q0 72 -24.5 106.5t-76.5 34.5q-58 0 -93 -36.5t-35 -106.5v-312h-106zM6 580v75h316v-75h-316z" />
    <glyph glyph-name="Itilde" unicode="&#x128;" horiz-adv-x="280" 
d="M86 0v710h108v-710h-108zM198 785q-20 0 -37 7t-35 21q-15 13 -24.5 18.5t-22.5 5.5q-17 0 -28.5 -12t-13.5 -47h-59q1 61 28.5 93.5t71.5 32.5q24 0 42 -8t36 -22q14 -12 24.5 -17t21.5 -5q18 0 28 12.5t12 48.5h60q-3 -60 -30 -94t-74 -34z" />
    <glyph glyph-name="itilde" unicode="&#x129;" horiz-adv-x="256" 
d="M75 0v532h106v-532h-106zM186 607q-20 0 -37 7t-35 21q-15 13 -24.5 18.5t-22.5 5.5q-17 0 -28.5 -12t-13.5 -47h-59q1 61 28.5 93.5t71.5 32.5q24 0 42 -8t36 -22q14 -12 24.5 -17t21.5 -5q18 0 28 12.5t12 48.5h60q-3 -60 -30 -94t-74 -34z" />
    <glyph glyph-name="Imacron" unicode="&#x12a;" horiz-adv-x="280" 
d="M86 0v710h108v-710h-108zM1 797v85h278v-85h-278z" />
    <glyph glyph-name="imacron" unicode="&#x12b;" horiz-adv-x="256" 
d="M75 0v532h106v-532h-106zM-11 619v85h278v-85h-278z" />
    <glyph glyph-name="Iogonek" unicode="&#x12e;" horiz-adv-x="280" 
d="M86 0v710h108v-710h-108zM136 -212q-46 0 -72.5 19t-26.5 56q0 29 17.5 59t36.5 57l31 41l72 -20l-34 -45q-17 -24 -24 -39t-7 -28q0 -12 8 -18.5t20 -6.5q14 0 26 3.5t21 9.5l25 -62q-12 -11 -38.5 -18.5t-54.5 -7.5z" />
    <glyph glyph-name="iogonek" unicode="&#x12f;" horiz-adv-x="256" 
d="M75 0v532h106v-532h-106zM73 609v106h110v-106h-110zM124 -212q-46 0 -72.5 19t-26.5 56q0 29 17.5 59t36.5 57l31 41l72 -20l-34 -45q-17 -24 -24 -39t-7 -28q0 -12 8 -18.5t20 -6.5q14 0 26 3.5t21 9.5l25 -62q-12 -11 -38.5 -18.5t-54.5 -7.5z" />
    <glyph glyph-name="Idotaccent" unicode="&#x130;" horiz-adv-x="280" 
d="M86 0v710h108v-710h-108zM85 787v106h110v-106h-110z" />
    <glyph glyph-name="dotlessi" unicode="&#x131;" horiz-adv-x="256" 
d="M75 0v532h106v-532h-106z" />
    <glyph glyph-name="IJ" unicode="&#x132;" horiz-adv-x="869" 
d="M86 0v710h108v-710h-108zM560 -16q-71 0 -124.5 32.5t-82.5 90t-30 132.5l110 6q1 -80 34 -121t93 -41q63 0 96.5 43t33.5 124v460h108v-460q0 -81 -29.5 -141t-82.5 -92.5t-126 -32.5z" />
    <glyph glyph-name="ij" unicode="&#x133;" horiz-adv-x="524" 
d="M75 0v532h106v-532h-106zM73 609v106h110v-106h-110zM236 -150v87h48q27 0 42.5 12t15.5 46v537h107v-541q0 -76 -34.5 -108.5t-114.5 -32.5h-64zM341 609v106h110v-106h-110z" />
    <glyph glyph-name="Jcircumflex" unicode="&#x134;" horiz-adv-x="607" 
d="M298 -16q-71 0 -124.5 32.5t-82.5 90t-30 132.5l110 6q1 -80 34 -121t93 -41q63 0 96.5 43t33.5 124v460h108v-460q0 -81 -29.5 -141t-82.5 -92.5t-126 -32.5zM336 774l92 139h110l92 -139h-81l-76 103h20l-76 -103h-81z" />
    <glyph glyph-name="jcircumflex" unicode="&#x135;" horiz-adv-x="284" 
d="M-4 -150v87h48q27 0 42.5 12t15.5 46v537h107v-541q0 -76 -34.5 -108.5t-114.5 -32.5h-64zM9 596l92 139h110l92 -139h-81l-76 103h20l-76 -103h-81z" />
    <glyph glyph-name="uni0136" unicode="&#x136;" horiz-adv-x="656" 
d="M86 0v710h108v-339l299 339h131l-272 -310l290 -400h-127l-235 324l-86 -96v-228h-108zM277 -244l54 94h-36v98h110v-89l-60 -103h-68z" />
    <glyph glyph-name="uni0137" unicode="&#x137;" horiz-adv-x="609" 
d="M75 0v710h106v-441l239 263h134l-208 -224l216 -308h-122l-165 242l-94 -100v-142h-106zM229 -244l54 94h-36v98h110v-89l-60 -103h-68z" />
    <glyph glyph-name="Lacute" unicode="&#x139;" horiz-adv-x="583" 
d="M86 0v710h108v-670l-57 59h403v-99h-454zM93 774l63 134h111l-90 -134h-84z" />
    <glyph glyph-name="lacute" unicode="&#x13a;" horiz-adv-x="282" 
d="M191 0q-52 0 -84 27t-32 86v597h106v-587q0 -18 9.5 -27t27.5 -9h42v-87h-69zM81 740l63 134h111l-90 -134h-84z" />
    <glyph glyph-name="uni013B" unicode="&#x13b;" horiz-adv-x="583" 
d="M86 0v710h108v-670l-57 59h403v-99h-454zM240 -244l54 94h-36v98h110v-89l-60 -103h-68z" />
    <glyph glyph-name="uni013C" unicode="&#x13c;" horiz-adv-x="282" 
d="M191 0q-52 0 -84 27t-32 86v597h106v-587q0 -18 9.5 -27t27.5 -9h42v-87h-69zM98 -244l54 94h-36v98h110v-89l-60 -103h-68z" />
    <glyph glyph-name="Lcaron" unicode="&#x13d;" horiz-adv-x="583" 
d="M86 0v710h108v-670l-57 59h403v-99h-454zM394 445l30 265h99l-53 -265h-76z" />
    <glyph glyph-name="lcaron" unicode="&#x13e;" horiz-adv-x="342" 
d="M191 0q-52 0 -84 27t-32 86v597h106v-587q0 -18 9.5 -27t27.5 -9h42v-87h-69zM237 445l30 265h99l-53 -265h-76z" />
    <glyph glyph-name="Lslash" unicode="&#x141;" horiz-adv-x="583" 
d="M86 0v710h108v-670l-57 59h403v-99h-454zM15 256v84l324 165v-85z" />
    <glyph glyph-name="lslash" unicode="&#x142;" horiz-adv-x="282" 
d="M191 0q-52 0 -84 27t-32 86v597h106v-587q0 -18 9.5 -27t27.5 -9h42v-87h-69zM5 301v77l255 120v-77z" />
    <glyph glyph-name="Nacute" unicode="&#x143;" horiz-adv-x="745" 
d="M86 0v710h137l328 -579v579h108v-710h-142l-323 566v-566h-108zM337 774l63 134h111l-90 -134h-84z" />
    <glyph glyph-name="nacute" unicode="&#x144;" horiz-adv-x="591" 
d="M75 0v532h97l4 -142l-13 7q9 52 34 84t61 47.5t78 15.5q60 0 99.5 -26.5t60 -72t20.5 -103.5v-342h-106v310q0 47 -10 79t-33 49t-60 17q-56 0 -91 -37t-35 -108v-310h-106zM249 596l63 134h111l-90 -134h-84z" />
    <glyph glyph-name="uni0145" unicode="&#x145;" horiz-adv-x="745" 
d="M86 0v710h137l328 -579v579h108v-710h-142l-323 566v-566h-108zM300 -244l54 94h-36v98h110v-89l-60 -103h-68z" />
    <glyph glyph-name="uni0146" unicode="&#x146;" horiz-adv-x="591" 
d="M75 0v532h97l4 -142l-13 7q9 52 34 84t61 47.5t78 15.5q60 0 99.5 -26.5t60 -72t20.5 -103.5v-342h-106v310q0 47 -10 79t-33 49t-60 17q-56 0 -91 -37t-35 -108v-310h-106zM223 -244l54 94h-36v98h110v-89l-60 -103h-68z" />
    <glyph glyph-name="Ncaron" unicode="&#x147;" horiz-adv-x="745" 
d="M86 0v710h137l328 -579v579h108v-710h-142l-323 566v-566h-108zM237 913h81l76 -103h-20l76 103h81l-92 -139h-110z" />
    <glyph glyph-name="ncaron" unicode="&#x148;" horiz-adv-x="591" 
d="M75 0v532h97l4 -142l-13 7q9 52 34 84t61 47.5t78 15.5q60 0 99.5 -26.5t60 -72t20.5 -103.5v-342h-106v310q0 47 -10 79t-33 49t-60 17q-56 0 -91 -37t-35 -108v-310h-106zM149 735h81l76 -103h-20l76 103h81l-92 -139h-110z" />
    <glyph glyph-name="Eng" unicode="&#x14a;" horiz-adv-x="745" 
d="M86 0v710h137l328 -578v578h108v-710h-142l-323 565v-565h-108zM394 -154v88h100q31 0 45.5 15t14.5 43v100h105v-99q0 -67 -40.5 -107t-112.5 -40h-112z" />
    <glyph glyph-name="eng" unicode="&#x14b;" horiz-adv-x="591" 
d="M272 -150v83h75q29 0 46 17.5t17 47.5v102h106v-106q0 -42 -19.5 -75t-54 -51t-82.5 -18h-88zM75 0v532h97l4 -142l-13 7q9 52 34 84t61 47.5t78 15.5q60 0 99.5 -26.5t60 -72t20.5 -103.5v-342h-106v310q0 47 -10 79t-33 49t-60 17q-56 0 -91 -37t-35 -108v-310h-106z
" />
    <glyph glyph-name="Omacron" unicode="&#x14c;" horiz-adv-x="751" 
d="M375 -16q-103 0 -177 44.5t-114 127.5t-40 198t40 198.5t114 128.5t177 45q104 0 178.5 -45t114 -128.5t39.5 -198.5t-39.5 -198t-114 -127.5t-178.5 -44.5zM375 83q69 0 118.5 32t75.5 92.5t26 146.5t-26 147t-75.5 93.5t-118.5 32.5q-68 0 -117 -32.5t-75.5 -93.5
t-26.5 -147t26.5 -146.5t75.5 -92.5t117 -32zM236 797v85h278v-85h-278z" />
    <glyph glyph-name="omacron" unicode="&#x14d;" horiz-adv-x="588" 
d="M294 -12q-76 0 -133 34t-88 97t-31 147q0 85 31 147t88 96.5t133 34.5t133 -34.5t88 -96.5t31 -147q0 -84 -31 -147t-88 -97t-133 -34zM294 80q68 0 105 49.5t37 136.5t-37 136.5t-105 49.5q-67 0 -104.5 -49.5t-37.5 -136.5t37.5 -136.5t104.5 -49.5zM156 619v85h278
v-85h-278z" />
    <glyph glyph-name="Ohungarumlaut" unicode="&#x150;" horiz-adv-x="751" 
d="M375 -16q-103 0 -177 44.5t-114 127.5t-40 198t40 198.5t114 128.5t177 45q104 0 178.5 -45t114 -128.5t39.5 -198.5t-39.5 -198t-114 -127.5t-178.5 -44.5zM375 83q69 0 118.5 32t75.5 92.5t26 146.5t-26 147t-75.5 93.5t-118.5 32.5q-68 0 -117 -32.5t-75.5 -93.5
t-26.5 -147t26.5 -146.5t75.5 -92.5t117 -32zM258 774l63 134h111l-90 -134h-84zM404 774l63 134h111l-90 -134h-84z" />
    <glyph glyph-name="ohungarumlaut" unicode="&#x151;" horiz-adv-x="588" 
d="M294 -12q-76 0 -133 34t-88 97t-31 147q0 85 31 147t88 96.5t133 34.5t133 -34.5t88 -96.5t31 -147q0 -84 -31 -147t-88 -97t-133 -34zM294 80q68 0 105 49.5t37 136.5t-37 136.5t-105 49.5q-67 0 -104.5 -49.5t-37.5 -136.5t37.5 -136.5t104.5 -49.5zM177 596l63 134
h111l-90 -134h-84zM323 596l63 134h111l-90 -134h-84z" />
    <glyph glyph-name="OE" unicode="&#x152;" horiz-adv-x="1099" 
d="M374 -16q-103 0 -177 46.5t-113.5 129.5t-39.5 194q0 112 39 195.5t113.5 130t177.5 46.5q76 0 134 -27.5t97 -78.5v90h432v-99h-324v-207h312v-96h-312v-209h332v-99h-440v90q-39 -51 -97 -78.5t-134 -27.5zM374 83q75 0 123.5 34.5t73 96t24.5 140.5t-24 140.5t-73 97
t-124 35.5q-73 0 -121.5 -35.5t-72.5 -97t-24 -140.5t24.5 -140.5t72.5 -96t121 -34.5z" />
    <glyph glyph-name="oe" unicode="&#x153;" horiz-adv-x="971" 
d="M294 -12q-76 0 -133 34t-88 97t-31 147q0 85 31 147t88 96.5t133 34.5t133 -34.5t88 -96.5t31 -147q0 -84 -31 -147t-88 -97t-133 -34zM294 80q68 0 105 49.5t37 136.5t-37 136.5t-105 49.5q-67 0 -104.5 -49.5t-37.5 -136.5t37.5 -136.5t104.5 -49.5zM689 -12
q-78 0 -134.5 34t-87 97t-30.5 147t30.5 146.5t86.5 97t132 34.5q72 0 127 -33.5t85.5 -96.5t30.5 -152v-27h-382q4 -78 41.5 -117t101.5 -39q47 0 78 22t43 59l110 -7q-21 -74 -82.5 -119.5t-149.5 -45.5zM547 315h270q-5 71 -40.5 105t-90.5 34q-57 0 -93.5 -35.5
t-45.5 -103.5z" />
    <glyph glyph-name="Racute" unicode="&#x154;" horiz-adv-x="680" 
d="M86 0v710h283q76 0 131 -26t85 -74t30 -114q0 -48 -21.5 -86t-57 -60.5t-75.5 -25.5l-5 9q67 0 104 -30.5t43 -95.5l19 -207h-109l-17 193q-3 43 -29 63.5t-85 20.5h-188v-277h-108zM194 376h177q61 0 96.5 30.5t35.5 86.5q0 57 -36 87.5t-105 30.5h-168v-235zM293 774
l63 134h111l-90 -134h-84z" />
    <glyph glyph-name="racute" unicode="&#x155;" horiz-adv-x="394" 
d="M75 0v532h97l4 -141l-9 3q11 72 44.5 105t90.5 33h51v-95h-51q-40 0 -67 -13t-40.5 -40t-13.5 -70v-314h-106zM161 596l63 134h111l-90 -134h-84z" />
    <glyph glyph-name="uni0156" unicode="&#x156;" horiz-adv-x="680" 
d="M86 0v710h283q76 0 131 -26t85 -74t30 -114q0 -48 -21.5 -86t-57 -60.5t-75.5 -25.5l-5 9q67 0 104 -30.5t43 -95.5l19 -207h-109l-17 193q-3 43 -29 63.5t-85 20.5h-188v-277h-108zM194 376h177q61 0 96.5 30.5t35.5 86.5q0 57 -36 87.5t-105 30.5h-168v-235zM280 -244
l54 94h-36v98h110v-89l-60 -103h-68z" />
    <glyph glyph-name="uni0157" unicode="&#x157;" horiz-adv-x="394" 
d="M75 0v532h97l4 -141l-9 3q11 72 44.5 105t90.5 33h51v-95h-51q-40 0 -67 -13t-40.5 -40t-13.5 -70v-314h-106zM55 -244l54 94h-36v98h110v-89l-60 -103h-68z" />
    <glyph glyph-name="Rcaron" unicode="&#x158;" horiz-adv-x="680" 
d="M86 0v710h283q76 0 131 -26t85 -74t30 -114q0 -48 -21.5 -86t-57 -60.5t-75.5 -25.5l-5 9q67 0 104 -30.5t43 -95.5l19 -207h-109l-17 193q-3 43 -29 63.5t-85 20.5h-188v-277h-108zM194 376h177q61 0 96.5 30.5t35.5 86.5q0 57 -36 87.5t-105 30.5h-168v-235zM193 913
h81l76 -103h-20l76 103h81l-92 -139h-110z" />
    <glyph glyph-name="rcaron" unicode="&#x159;" horiz-adv-x="394" 
d="M75 0v532h97l4 -141l-9 3q11 72 44.5 105t90.5 33h51v-95h-51q-40 0 -67 -13t-40.5 -40t-13.5 -70v-314h-106zM61 735h81l76 -103h-20l76 103h81l-92 -139h-110z" />
    <glyph glyph-name="Sacute" unicode="&#x15a;" horiz-adv-x="654" 
d="M342 -16q-85 0 -147.5 31t-98.5 86t-42 128l111 7q7 -50 29 -84.5t59.5 -52t90.5 -17.5q46 0 78.5 11.5t49.5 34.5t17 56q0 30 -14.5 53.5t-55 43t-118.5 38.5q-85 21 -136 46t-73.5 62.5t-22.5 92.5q0 61 29.5 107.5t84.5 72.5t132 26q81 0 138.5 -30t91 -82t41.5 -119
l-111 -6q-5 41 -25 72.5t-54 49t-83 17.5q-62 0 -97.5 -28.5t-35.5 -75.5q0 -30 14.5 -50.5t52 -35.5t106.5 -32q92 -21 146.5 -51.5t77.5 -71.5t23 -93q0 -63 -32.5 -109.5t-90.5 -71.5t-135 -25zM268 774l63 134h111l-90 -134h-84z" />
    <glyph glyph-name="sacute" unicode="&#x15b;" horiz-adv-x="540" 
d="M280 -12q-75 0 -126.5 23t-79.5 63.5t-32 93.5l109 5q8 -44 38 -70t91 -26q50 0 79 16t29 51q0 19 -9.5 32.5t-36.5 23t-80 18.5q-79 15 -124 35t-64 51t-19 75q0 73 54.5 119t157.5 46q69 0 116 -23.5t73.5 -63t33.5 -88.5l-109 -6q-5 28 -19.5 48.5t-38.5 32t-57 11.5
q-51 0 -76 -20t-25 -52q0 -24 11.5 -39t37.5 -24.5t69 -16.5q83 -14 130 -34.5t66 -50.5t19 -73q0 -50 -28 -85t-77 -53.5t-113 -18.5zM220 596l63 134h111l-90 -134h-84z" />
    <glyph glyph-name="Scircumflex" unicode="&#x15c;" horiz-adv-x="654" 
d="M342 -16q-85 0 -147.5 31t-98.5 86t-42 128l111 7q7 -50 29 -84.5t59.5 -52t90.5 -17.5q46 0 78.5 11.5t49.5 34.5t17 56q0 30 -14.5 53.5t-55 43t-118.5 38.5q-85 21 -136 46t-73.5 62.5t-22.5 92.5q0 61 29.5 107.5t84.5 72.5t132 26q81 0 138.5 -30t91 -82t41.5 -119
l-111 -6q-5 41 -25 72.5t-54 49t-83 17.5q-62 0 -97.5 -28.5t-35.5 -75.5q0 -30 14.5 -50.5t52 -35.5t106.5 -32q92 -21 146.5 -51.5t77.5 -71.5t23 -93q0 -63 -32.5 -109.5t-90.5 -71.5t-135 -25zM168 774l92 139h110l92 -139h-81l-76 103h20l-76 -103h-81z" />
    <glyph glyph-name="scircumflex" unicode="&#x15d;" horiz-adv-x="540" 
d="M280 -12q-75 0 -126.5 23t-79.5 63.5t-32 93.5l109 5q8 -44 38 -70t91 -26q50 0 79 16t29 51q0 19 -9.5 32.5t-36.5 23t-80 18.5q-79 15 -124 35t-64 51t-19 75q0 73 54.5 119t157.5 46q69 0 116 -23.5t73.5 -63t33.5 -88.5l-109 -6q-5 28 -19.5 48.5t-38.5 32t-57 11.5
q-51 0 -76 -20t-25 -52q0 -24 11.5 -39t37.5 -24.5t69 -16.5q83 -14 130 -34.5t66 -50.5t19 -73q0 -50 -28 -85t-77 -53.5t-113 -18.5zM120 596l92 139h110l92 -139h-81l-76 103h20l-76 -103h-81z" />
    <glyph glyph-name="Scedilla" unicode="&#x15e;" horiz-adv-x="654" 
d="M342 -16q-85 0 -147.5 31t-98.5 86t-42 128l111 7q7 -50 29 -84.5t59.5 -52t90.5 -17.5q46 0 78.5 11.5t49.5 34.5t17 56q0 30 -14.5 53.5t-55 43t-118.5 38.5q-85 21 -136 46t-73.5 62.5t-22.5 92.5q0 61 29.5 107.5t84.5 72.5t132 26q81 0 138.5 -30t91 -82t41.5 -119
l-111 -6q-5 41 -25 72.5t-54 49t-83 17.5q-62 0 -97.5 -28.5t-35.5 -75.5q0 -30 14.5 -50.5t52 -35.5t106.5 -32q92 -21 146.5 -51.5t77.5 -71.5t23 -93q0 -63 -32.5 -109.5t-90.5 -71.5t-135 -25zM325 -224q-48 0 -78.5 22.5t-41.5 57.5l56 22q8 -21 23 -30.5t39 -9.5
q25 0 38.5 10t13.5 28q0 19 -13.5 31t-58.5 12l-33 33l37 58h71l-32 -44q50 -3 73 -28.5t23 -63.5q0 -31 -15.5 -52.5t-41.5 -33.5t-60 -12z" />
    <glyph glyph-name="scedilla" unicode="&#x15f;" horiz-adv-x="540" 
d="M280 -12q-75 0 -126.5 23t-79.5 63.5t-32 93.5l109 5q8 -44 38 -70t91 -26q50 0 79 16t29 51q0 19 -9.5 32.5t-36.5 23t-80 18.5q-79 15 -124 35t-64 51t-19 75q0 73 54.5 119t157.5 46q69 0 116 -23.5t73.5 -63t33.5 -88.5l-109 -6q-5 28 -19.5 48.5t-38.5 32t-57 11.5
q-51 0 -76 -20t-25 -52q0 -24 11.5 -39t37.5 -24.5t69 -16.5q83 -14 130 -34.5t66 -50.5t19 -73q0 -50 -28 -85t-77 -53.5t-113 -18.5zM265 -224q-48 0 -78.5 22.5t-41.5 57.5l56 22q8 -21 23 -30.5t39 -9.5q25 0 38.5 10t13.5 28q0 19 -13.5 31t-58.5 12l-33 33l37 58h71
l-32 -44q50 -3 73 -28.5t23 -63.5q0 -31 -15.5 -52.5t-41.5 -33.5t-60 -12z" />
    <glyph glyph-name="Scaron" unicode="&#x160;" horiz-adv-x="654" 
d="M342 -16q-85 0 -147.5 31t-98.5 86t-42 128l111 7q7 -50 29 -84.5t59.5 -52t90.5 -17.5q46 0 78.5 11.5t49.5 34.5t17 56q0 30 -14.5 53.5t-55 43t-118.5 38.5q-85 21 -136 46t-73.5 62.5t-22.5 92.5q0 61 29.5 107.5t84.5 72.5t132 26q81 0 138.5 -30t91 -82t41.5 -119
l-111 -6q-5 41 -25 72.5t-54 49t-83 17.5q-62 0 -97.5 -28.5t-35.5 -75.5q0 -30 14.5 -50.5t52 -35.5t106.5 -32q92 -21 146.5 -51.5t77.5 -71.5t23 -93q0 -63 -32.5 -109.5t-90.5 -71.5t-135 -25zM168 913h81l76 -103h-20l76 103h81l-92 -139h-110z" />
    <glyph glyph-name="scaron" unicode="&#x161;" horiz-adv-x="540" 
d="M280 -12q-75 0 -126.5 23t-79.5 63.5t-32 93.5l109 5q8 -44 38 -70t91 -26q50 0 79 16t29 51q0 19 -9.5 32.5t-36.5 23t-80 18.5q-79 15 -124 35t-64 51t-19 75q0 73 54.5 119t157.5 46q69 0 116 -23.5t73.5 -63t33.5 -88.5l-109 -6q-5 28 -19.5 48.5t-38.5 32t-57 11.5
q-51 0 -76 -20t-25 -52q0 -24 11.5 -39t37.5 -24.5t69 -16.5q83 -14 130 -34.5t66 -50.5t19 -73q0 -50 -28 -85t-77 -53.5t-113 -18.5zM120 735h81l76 -103h-20l76 103h81l-92 -139h-110z" />
    <glyph glyph-name="uni0162" unicode="&#x162;" horiz-adv-x="568" 
d="M230 0v611h-218v99h544v-99h-218v-611h-108zM275 -224q-48 0 -78.5 22.5t-41.5 57.5l56 22q8 -21 23 -30.5t39 -9.5q25 0 38.5 10t13.5 28q0 19 -13.5 31t-58.5 12l-33 33l37 58h71l-32 -44q50 -3 73 -28.5t23 -63.5q0 -31 -15.5 -52.5t-41.5 -33.5t-60 -12z" />
    <glyph glyph-name="uni0163" unicode="&#x163;" horiz-adv-x="410" 
d="M279 0q-76 0 -112 35t-36 109v513h106v-505q0 -37 16 -51t49 -14h76v-87h-99zM50 445v87h328v-87h-328zM234 -224q-48 0 -78.5 22.5t-41.5 57.5l56 22q8 -21 23 -30.5t39 -9.5q25 0 38.5 10t13.5 28q0 19 -13.5 31t-58.5 12l-33 33l37 58h71l-32 -44q50 -3 73 -28.5
t23 -63.5q0 -31 -15.5 -52.5t-41.5 -33.5t-60 -12z" />
    <glyph glyph-name="Tcaron" unicode="&#x164;" horiz-adv-x="568" 
d="M230 0v611h-218v99h544v-99h-218v-611h-108zM137 913h81l76 -103h-20l76 103h81l-92 -139h-110z" />
    <glyph glyph-name="tcaron" unicode="&#x165;" horiz-adv-x="416" 
d="M304 554l30 215h96l-53 -215h-73zM279 0q-76 0 -112 35t-36 109v513h106v-505q0 -37 16 -51t49 -14h76v-87h-99zM50 445v87h328v-87h-328z" />
    <glyph glyph-name="Tbar" unicode="&#x166;" horiz-adv-x="568" 
d="M230 0v611h-218v99h544v-99h-218v-611h-108zM97 296v90h374v-90h-374z" />
    <glyph glyph-name="tbar" unicode="&#x167;" horiz-adv-x="410" 
d="M279 0q-76 0 -112 35t-36 109v513h106v-505q0 -37 16 -51t49 -14h76v-87h-99zM50 445v87h328v-87h-328zM50 250v75h320v-75h-320z" />
    <glyph glyph-name="Utilde" unicode="&#x168;" horiz-adv-x="694" 
d="M347 -16q-84 0 -146.5 32.5t-96 92.5t-33.5 142v460h108v-460q0 -81 44 -124.5t124 -43.5t124 43.5t44 124.5v460h108v-460q0 -82 -33.5 -142t-95.5 -92.5t-147 -32.5zM405 785q-20 0 -37 7t-35 21q-15 13 -24.5 18.5t-22.5 5.5q-17 0 -28.5 -12t-13.5 -47h-59
q1 61 28.5 93.5t71.5 32.5q24 0 42 -8t36 -22q14 -12 24.5 -17t21.5 -5q18 0 28 12.5t12 48.5h60q-3 -60 -30 -94t-74 -34z" />
    <glyph glyph-name="utilde" unicode="&#x169;" horiz-adv-x="586" 
d="M250 -12q-80 0 -127.5 53.5t-47.5 148.5v342h106v-315q0 -72 25 -106t76 -34q58 0 90.5 37.5t32.5 105.5v312h106v-532h-99l-2 139l15 -6q-14 -70 -59 -107.5t-116 -37.5zM337 607q-20 0 -37 7t-35 21q-15 13 -24.5 18.5t-22.5 5.5q-17 0 -28.5 -12t-13.5 -47h-59
q1 61 28.5 93.5t71.5 32.5q24 0 42 -8t36 -22q14 -12 24.5 -17t21.5 -5q18 0 28 12.5t12 48.5h60q-3 -60 -30 -94t-74 -34z" />
    <glyph glyph-name="Umacron" unicode="&#x16a;" horiz-adv-x="694" 
d="M347 -16q-84 0 -146.5 32.5t-96 92.5t-33.5 142v460h108v-460q0 -81 44 -124.5t124 -43.5t124 43.5t44 124.5v460h108v-460q0 -82 -33.5 -142t-95.5 -92.5t-147 -32.5zM208 797v85h278v-85h-278z" />
    <glyph glyph-name="umacron" unicode="&#x16b;" horiz-adv-x="586" 
d="M250 -12q-80 0 -127.5 53.5t-47.5 148.5v342h106v-315q0 -72 25 -106t76 -34q58 0 90.5 37.5t32.5 105.5v312h106v-532h-99l-2 139l15 -6q-14 -70 -59 -107.5t-116 -37.5zM151 619v85h278v-85h-278z" />
    <glyph glyph-name="Ubreve" unicode="&#x16c;" horiz-adv-x="694" 
d="M347 -16q-84 0 -146.5 32.5t-96 92.5t-33.5 142v460h108v-460q0 -81 44 -124.5t124 -43.5t124 43.5t44 124.5v460h108v-460q0 -82 -33.5 -142t-95.5 -92.5t-147 -32.5zM347 777q-64 0 -103 36.5t-42 98.5h67q5 -34 25.5 -50t52.5 -16q34 0 54 16t23 50h68
q-3 -62 -41.5 -98.5t-103.5 -36.5z" />
    <glyph glyph-name="ubreve" unicode="&#x16d;" horiz-adv-x="586" 
d="M250 -12q-80 0 -127.5 53.5t-47.5 148.5v342h106v-315q0 -72 25 -106t76 -34q58 0 90.5 37.5t32.5 105.5v312h106v-532h-99l-2 139l15 -6q-14 -70 -59 -107.5t-116 -37.5zM290 599q-64 0 -103 36.5t-42 98.5h67q5 -34 25.5 -50t52.5 -16q34 0 54 16t23 50h68
q-3 -62 -41.5 -98.5t-103.5 -36.5z" />
    <glyph glyph-name="Uring" unicode="&#x16e;" horiz-adv-x="694" 
d="M347 -16q-84 0 -146.5 32.5t-96 92.5t-33.5 142v460h108v-460q0 -81 44 -124.5t124 -43.5t124 43.5t44 124.5v460h108v-460q0 -82 -33.5 -142t-95.5 -92.5t-147 -32.5zM347 754q-40 0 -67.5 27t-27.5 68q0 40 27.5 67.5t67.5 27.5q41 0 68.5 -27.5t27.5 -67.5
q0 -41 -27.5 -68t-68.5 -27zM347 808q18 0 29.5 11.5t11.5 29.5q0 17 -11.5 28.5t-29.5 11.5q-17 0 -28.5 -11.5t-11.5 -28.5q0 -18 11.5 -29.5t28.5 -11.5z" />
    <glyph glyph-name="uring" unicode="&#x16f;" horiz-adv-x="586" 
d="M250 -12q-80 0 -127.5 53.5t-47.5 148.5v342h106v-315q0 -72 25 -106t76 -34q58 0 90.5 37.5t32.5 105.5v312h106v-532h-99l-2 139l15 -6q-14 -70 -59 -107.5t-116 -37.5zM290 576q-40 0 -67.5 27t-27.5 68q0 40 27.5 67.5t67.5 27.5q41 0 68.5 -27.5t27.5 -67.5
q0 -41 -27.5 -68t-68.5 -27zM290 630q18 0 29.5 11.5t11.5 29.5q0 17 -11.5 28.5t-29.5 11.5q-17 0 -28.5 -11.5t-11.5 -28.5q0 -18 11.5 -29.5t28.5 -11.5z" />
    <glyph glyph-name="Uhungarumlaut" unicode="&#x170;" horiz-adv-x="694" 
d="M347 -16q-84 0 -146.5 32.5t-96 92.5t-33.5 142v460h108v-460q0 -81 44 -124.5t124 -43.5t124 43.5t44 124.5v460h108v-460q0 -82 -33.5 -142t-95.5 -92.5t-147 -32.5zM230 774l63 134h111l-90 -134h-84zM376 774l63 134h111l-90 -134h-84z" />
    <glyph glyph-name="uhungarumlaut" unicode="&#x171;" horiz-adv-x="586" 
d="M250 -12q-80 0 -127.5 53.5t-47.5 148.5v342h106v-315q0 -72 25 -106t76 -34q58 0 90.5 37.5t32.5 105.5v312h106v-532h-99l-2 139l15 -6q-14 -70 -59 -107.5t-116 -37.5zM172 596l63 134h111l-90 -134h-84zM319 596l63 134h111l-90 -134h-84z" />
    <glyph glyph-name="Uogonek" unicode="&#x172;" horiz-adv-x="694" 
d="M347 -16q-84 0 -146.5 32.5t-96 92.5t-33.5 142v460h108v-460q0 -81 44 -124.5t124 -43.5t124 43.5t44 124.5v460h108v-460q0 -82 -33.5 -142t-95.5 -92.5t-147 -32.5zM403 -210q-46 0 -72.5 19t-26.5 56q0 29 17.5 59t36.5 57l31 41l72 -20l-34 -45q-17 -24 -24 -39
t-7 -28q0 -12 8 -18.5t20 -6.5q14 0 26 3.5t21 9.5l25 -62q-12 -11 -38.5 -18.5t-54.5 -7.5z" />
    <glyph glyph-name="uogonek" unicode="&#x173;" horiz-adv-x="586" 
d="M250 -12q-80 0 -127.5 53.5t-47.5 148.5v342h106v-315q0 -72 25 -106t76 -34q58 0 90.5 37.5t32.5 105.5v312h106v-532h-99l-2 139l15 -6q-14 -70 -59 -107.5t-116 -37.5zM453 -212q-46 0 -72.5 19t-26.5 56q0 29 17.5 59t36.5 57l31 41l72 -20l-34 -45q-17 -24 -24 -39
t-7 -28q0 -12 8 -18.5t20 -6.5q14 0 26 3.5t21 9.5l25 -62q-12 -11 -38.5 -18.5t-54.5 -7.5z" />
    <glyph glyph-name="Wcircumflex" unicode="&#x174;" horiz-adv-x="968" 
d="M226 0l-188 710h115l138 -561l138 561h110l138 -561l137 561h117l-189 -710h-126l-132 518l-132 -518h-126zM337 774l92 139h110l92 -139h-81l-76 103h20l-76 -103h-81z" />
    <glyph glyph-name="wcircumflex" unicode="&#x175;" horiz-adv-x="829" 
d="M184 0l-162 532h111l114 -416l117 416h100l117 -416l115 416h111l-162 -532h-119l-112 380l-112 -380h-118zM268 596l92 139h110l92 -139h-81l-76 103h20l-76 -103h-81z" />
    <glyph glyph-name="Ycircumflex" unicode="&#x176;" horiz-adv-x="594" 
d="M243 0v285l-249 425h124l179 -317l180 317h124l-250 -425v-285h-108zM150 774l92 139h110l92 -139h-81l-76 103h20l-76 -103h-81z" />
    <glyph glyph-name="ycircumflex" unicode="&#x177;" horiz-adv-x="553" 
d="M105 -150v87h65q27 0 40 8t20 27l17 44h-33l-192 516h112l146 -418l139 418h113l-212 -594q-16 -46 -47.5 -67t-87.5 -21h-80zM130 596l92 139h110l92 -139h-81l-76 103h20l-76 -103h-81z" />
    <glyph glyph-name="Ydieresis" unicode="&#x178;" horiz-adv-x="594" 
d="M243 0v285l-249 425h124l179 -317l180 317h124l-250 -425v-285h-108zM151 786v106h106v-106h-106zM338 786v106h107v-106h-107z" />
    <glyph glyph-name="Zacute" unicode="&#x179;" horiz-adv-x="561" 
d="M28 0v100l366 511h-352v99h480v-100l-368 -511h379v-99h-505zM242 774l63 134h111l-90 -134h-84z" />
    <glyph glyph-name="zacute" unicode="&#x17a;" horiz-adv-x="564" 
d="M57 0v95l321 350h-311v87h433v-95l-324 -350h332v-87h-451zM237 596l63 134h111l-90 -134h-84z" />
    <glyph glyph-name="Zdotaccent" unicode="&#x17b;" horiz-adv-x="561" 
d="M28 0v100l366 511h-352v99h480v-100l-368 -511h379v-99h-505zM234 787v106h110v-106h-110z" />
    <glyph glyph-name="zdotaccent" unicode="&#x17c;" horiz-adv-x="564" 
d="M57 0v95l321 350h-311v87h433v-95l-324 -350h332v-87h-451zM229 609v106h110v-106h-110z" />
    <glyph glyph-name="Zcaron" unicode="&#x17d;" horiz-adv-x="561" 
d="M28 0v100l366 511h-352v99h480v-100l-368 -511h379v-99h-505zM142 913h81l76 -103h-20l76 103h81l-92 -139h-110z" />
    <glyph glyph-name="zcaron" unicode="&#x17e;" horiz-adv-x="564" 
d="M57 0v95l321 350h-311v87h433v-95l-324 -350h332v-87h-451zM137 735h81l76 -103h-20l76 103h81l-92 -139h-110z" />
    <glyph glyph-name="uni018F" unicode="&#x18f;" horiz-adv-x="728" 
d="M583 299h-423q9 -71 35 -119t67 -72.5t95 -24.5q61 0 109.5 28.5t77 85.5t28.5 140v29q0 83 -29 141.5t-78 89t-109 30.5q-39 0 -73 -14t-60 -43t-44 -72l-114 9q22 68 63.5 116.5t99.5 75.5t128 27q99 0 173 -45t114.5 -128t40.5 -198q0 -89 -25 -158t-69 -116.5
t-103.5 -72t-130.5 -24.5q-60 0 -116.5 22.5t-100.5 67.5t-69.5 112.5t-25.5 156.5v52h542z" />
    <glyph glyph-name="florin" unicode="&#x192;" horiz-adv-x="517" 
d="M55 0v90h63q27 0 42.5 14t18.5 41l47 428q8 67 47.5 102.5t106.5 34.5l100 -1v-89h-92q-27 0 -42.5 -14.5t-18.5 -41.5l-48 -428q-7 -67 -46.5 -102.5t-108.5 -34.5zM130 436v87h350v-87h-350z" />
    <glyph glyph-name="uni01CD" unicode="&#x1cd;" horiz-adv-x="689" 
d="M20 0l256 710h137l256 -710h-115l-65 185h-290l-64 -185h-115zM233 283h223l-112 324zM197 913h81l76 -103h-20l76 103h81l-92 -139h-110z" />
    <glyph glyph-name="uni01CE" unicode="&#x1ce;" horiz-adv-x="565" 
d="M224 -12q-83 0 -132.5 38t-49.5 107t41.5 107.5t128.5 55.5l183 35q0 62 -29 92.5t-86 30.5q-51 0 -80 -22.5t-40 -66.5l-109 7q15 80 74.5 126t154.5 46q108 0 164.5 -57.5t56.5 -161.5v-207q0 -19 6.5 -26.5t21.5 -7.5h19v-84q-5 -1 -16 -2t-23 -1q-34 0 -58.5 11
t-36.5 36.5t-12 68.5l11 -5q-8 -35 -34.5 -62t-67 -42.5t-87.5 -15.5zM241 72q48 0 82 18.5t53 51.5t19 75v34l-156 -30q-48 -9 -67.5 -28.5t-19.5 -49.5q0 -34 23.5 -52.5t65.5 -18.5zM137 735h81l76 -103h-20l76 103h81l-92 -139h-110z" />
    <glyph glyph-name="uni01E4" unicode="&#x1e4;" horiz-adv-x="756" 
d="M371 156v70h346v-70h-346zM368 -16q-106 0 -178 49t-109 133t-37 188q0 105 38.5 189t112 133.5t177.5 49.5q124 0 196.5 -65t93.5 -174l-113 -6q-7 42 -28 75.5t-57 52t-93 18.5q-75 0 -123 -37t-70 -99t-22 -137q0 -78 22.5 -139.5t69.5 -96.5t119 -35q63 0 105.5 25
t64.5 69.5t24 102.5h-190v82h293v-43q0 -107 -34.5 -182t-101 -114t-160.5 -39z" />
    <glyph glyph-name="uni01E5" unicode="&#x1e5;" horiz-adv-x="635" 
d="M249 243v76h351v-76h-351zM289 -162q-63 0 -111 19t-79 53.5t-42 80.5l110 7q11 -33 38.5 -52.5t83.5 -19.5q66 0 101.5 28t35.5 85v77q-19 -41 -61 -65t-94 -24q-67 0 -119 33t-81 91t-29 134q0 77 28.5 135t80 91t116.5 33q57 0 100.5 -26t62.5 -70v84h102v-490
q0 -66 -29.5 -111.5t-84 -69t-129.5 -23.5zM288 117q62 0 99.5 45t38.5 124q1 52 -16 89.5t-48.5 58t-73.5 20.5q-65 0 -100.5 -45.5t-35.5 -122.5q0 -78 36.5 -123.5t99.5 -45.5z" />
    <glyph glyph-name="Gcaron" unicode="&#x1e6;" horiz-adv-x="713" 
d="M365 -16q-101 0 -173 47.5t-110 131t-38 191.5q0 107 38.5 191t111.5 132.5t175 48.5q87 0 147.5 -31t96 -85t49.5 -123l-113 -6q-12 65 -54 105.5t-126 40.5q-74 0 -121 -37t-69.5 -99t-22.5 -137q0 -78 22.5 -139t70 -96.5t121.5 -35.5q58 0 100 25t65.5 68t25.5 95
h-190v91h293v-362h-74l-7 160l14 -12q-11 -48 -45 -85t-82.5 -58t-104.5 -21zM222 913h81l76 -103h-20l76 103h81l-92 -139h-110z" />
    <glyph glyph-name="gcaron" unicode="&#x1e7;" horiz-adv-x="607" 
d="M289 -162q-63 0 -111 19t-79 53.5t-42 80.5l110 7q11 -33 38.5 -52.5t83.5 -19.5q66 0 101.5 28t35.5 85v77q-19 -41 -61 -65t-94 -24q-67 0 -119 33t-81 91t-29 134q0 77 28.5 135t80 91t116.5 33q57 0 100.5 -26t62.5 -70v84h102v-490q0 -66 -29.5 -111.5t-84 -69
t-129.5 -23.5zM288 117q62 0 99.5 45t38.5 124q1 52 -16 89.5t-48.5 58t-73.5 20.5q-65 0 -100.5 -45.5t-35.5 -122.5q0 -78 36.5 -123.5t99.5 -45.5zM145 735h81l76 -103h-20l76 103h81l-92 -139h-110z" />
    <glyph glyph-name="uni01E8" unicode="&#x1e8;" horiz-adv-x="656" 
d="M86 0v710h108v-339l299 339h131l-272 -310l290 -400h-127l-235 324l-86 -96v-228h-108zM187 913h81l76 -103h-20l76 103h81l-92 -139h-110z" />
    <glyph glyph-name="uni01E9" unicode="&#x1e9;" horiz-adv-x="609" 
d="M75 0v710h106v-441l239 263h134l-208 -224l216 -308h-122l-165 242l-94 -100v-142h-106zM-19 879h81l76 -103h-20l76 103h81l-92 -139h-110z" />
    <glyph glyph-name="uni0218" unicode="&#x218;" horiz-adv-x="654" 
d="M342 -16q-85 0 -147.5 31t-98.5 86t-42 128l111 7q7 -50 29 -84.5t59.5 -52t90.5 -17.5q46 0 78.5 11.5t49.5 34.5t17 56q0 30 -14.5 53.5t-55 43t-118.5 38.5q-85 21 -136 46t-73.5 62.5t-22.5 92.5q0 61 29.5 107.5t84.5 72.5t132 26q81 0 138.5 -30t91 -82t41.5 -119
l-111 -6q-5 41 -25 72.5t-54 49t-83 17.5q-62 0 -97.5 -28.5t-35.5 -75.5q0 -30 14.5 -50.5t52 -35.5t106.5 -32q92 -21 146.5 -51.5t77.5 -71.5t23 -93q0 -63 -32.5 -109.5t-90.5 -71.5t-135 -25zM261 -244l54 94h-36v98h110v-89l-60 -103h-68z" />
    <glyph glyph-name="uni0219" unicode="&#x219;" horiz-adv-x="540" 
d="M280 -12q-75 0 -126.5 23t-79.5 63.5t-32 93.5l109 5q8 -44 38 -70t91 -26q50 0 79 16t29 51q0 19 -9.5 32.5t-36.5 23t-80 18.5q-79 15 -124 35t-64 51t-19 75q0 73 54.5 119t157.5 46q69 0 116 -23.5t73.5 -63t33.5 -88.5l-109 -6q-5 28 -19.5 48.5t-38.5 32t-57 11.5
q-51 0 -76 -20t-25 -52q0 -24 11.5 -39t37.5 -24.5t69 -16.5q83 -14 130 -34.5t66 -50.5t19 -73q0 -50 -28 -85t-77 -53.5t-113 -18.5zM201 -244l54 94h-36v98h110v-89l-60 -103h-68z" />
    <glyph glyph-name="uni021A" unicode="&#x21a;" horiz-adv-x="568" 
d="M230 0v611h-218v99h544v-99h-218v-611h-108zM211 -244l54 94h-36v98h110v-89l-60 -103h-68z" />
    <glyph glyph-name="uni021B" unicode="&#x21b;" horiz-adv-x="410" 
d="M279 0q-76 0 -112 35t-36 109v513h106v-505q0 -37 16 -51t49 -14h76v-87h-99zM50 445v87h328v-87h-328zM170 -244l54 94h-36v98h110v-89l-60 -103h-68z" />
    <glyph glyph-name="uni0237" unicode="&#x237;" horiz-adv-x="284" 
d="M-4 -150v87h48q27 0 42.5 12t15.5 46v537h107v-541q0 -76 -34.5 -108.5t-114.5 -32.5h-64z" />
    <glyph glyph-name="uni0259" unicode="&#x259;" horiz-adv-x="576" 
d="M282 544q77 0 134 -34.5t87.5 -97t30.5 -146.5t-30.5 -146.5t-86.5 -97t-132 -34.5q-72 0 -127 33.5t-85.5 96.5t-30.5 152v27h382q-4 78 -41.5 117t-101.5 39q-47 0 -77.5 -21.5t-43.5 -59.5l-111 7q22 74 83.5 119.5t149.5 45.5zM424 217h-270q5 -70 41 -104.5
t90 -34.5q57 0 93.5 36t45.5 103z" />
    <glyph glyph-name="uni02B9" unicode="&#x2b9;" horiz-adv-x="253" 
d="M40 480l44 230h102l-54 -230h-92z" />
    <glyph glyph-name="uni02BC" unicode="&#x2bc;" horiz-adv-x="218" 
d="M53 458l30 252h93l-53 -252h-70z" />
    <glyph glyph-name="circumflex" unicode="&#x2c6;" horiz-adv-x="378" 
d="M42 596l92 139h110l92 -139h-81l-76 103h20l-76 -103h-81z" />
    <glyph glyph-name="caron" unicode="&#x2c7;" horiz-adv-x="378" 
d="M42 735h81l76 -103h-20l76 103h81l-92 -139h-110z" />
    <glyph glyph-name="uni02C8" unicode="&#x2c8;" horiz-adv-x="187" 
d="M58 458l-14 173v79h98v-79l-13 -173h-71z" />
    <glyph glyph-name="breve" unicode="&#x2d8;" horiz-adv-x="374" 
d="M187 599q-64 0 -103 36.5t-42 98.5h67q5 -34 25.5 -50t52.5 -16q34 0 54 16t23 50h68q-3 -62 -41.5 -98.5t-103.5 -36.5z" />
    <glyph glyph-name="dotaccent" unicode="&#x2d9;" horiz-adv-x="194" 
d="M42 609v106h110v-106h-110z" />
    <glyph glyph-name="ring" unicode="&#x2da;" horiz-adv-x="274" 
d="M137 576q-40 0 -67.5 27t-27.5 68q0 40 27.5 67.5t67.5 27.5q41 0 68.5 -27.5t27.5 -67.5q0 -41 -27.5 -68t-68.5 -27zM137 630q18 0 29.5 11.5t11.5 29.5q0 17 -11.5 28.5t-29.5 11.5q-17 0 -28.5 -11.5t-11.5 -28.5q0 -18 11.5 -29.5t28.5 -11.5z" />
    <glyph glyph-name="ogonek" unicode="&#x2db;" horiz-adv-x="276" 
d="M141 -212q-46 0 -72.5 19t-26.5 56q0 29 17.5 59t36.5 57l31 41l72 -20l-34 -45q-17 -24 -24 -39t-7 -28q0 -12 8 -18.5t20 -6.5q14 0 26 3.5t21 9.5l25 -62q-12 -11 -38.5 -18.5t-54.5 -7.5z" />
    <glyph glyph-name="tilde" unicode="&#x2dc;" horiz-adv-x="407" 
d="M262 607q-20 0 -37 7t-35 21q-15 13 -24.5 18.5t-22.5 5.5q-17 0 -28.5 -12t-13.5 -47h-59q1 61 28.5 93.5t71.5 32.5q24 0 42 -8t36 -22q14 -12 24.5 -17t21.5 -5q18 0 28 12.5t12 48.5h60q-3 -60 -30 -94t-74 -34z" />
    <glyph glyph-name="hungarumlaut" unicode="&#x2dd;" horiz-adv-x="404" 
d="M42 596l63 134h111l-90 -134h-84zM188 596l63 134h111l-90 -134h-84z" />
    <glyph glyph-name="gravecomb" unicode="&#x300;" 
d="M132 601l-90 135h111l63 -135h-84z" />
    <glyph glyph-name="acutecomb" unicode="&#x301;" 
d="M42 596l63 134h111l-90 -134h-84z" />
    <glyph glyph-name="uni0302" unicode="&#x302;" 
d="M42 596l92 139h110l92 -139h-81l-76 103h20l-76 -103h-81z" />
    <glyph glyph-name="tildecomb" unicode="&#x303;" 
d="M262 607q-20 0 -37 7t-35 21q-15 13 -24.5 18.5t-22.5 5.5q-17 0 -28.5 -12t-13.5 -47h-59q1 61 28.5 93.5t71.5 32.5q24 0 42 -8t36 -22q14 -12 24.5 -17t21.5 -5q18 0 28 12.5t12 48.5h60q-3 -60 -30 -94t-74 -34z" />
    <glyph glyph-name="uni0304" unicode="&#x304;" 
d="M42 619v85h278v-85h-278z" />
    <glyph glyph-name="uni0306" unicode="&#x306;" 
d="M187 599q-64 0 -103 36.5t-42 98.5h67q5 -34 25.5 -50t52.5 -16q34 0 54 16t23 50h68q-3 -62 -41.5 -98.5t-103.5 -36.5z" />
    <glyph glyph-name="uni0307" unicode="&#x307;" 
d="M42 609v106h110v-106h-110z" />
    <glyph glyph-name="uni0308" unicode="&#x308;" 
d="M42 608v106h106v-106h-106zM229 608v106h107v-106h-107z" />
    <glyph glyph-name="uni030A" unicode="&#x30a;" 
d="M137 576q-40 0 -67.5 27t-27.5 68q0 40 27.5 67.5t67.5 27.5q41 0 68.5 -27.5t27.5 -67.5q0 -41 -27.5 -68t-68.5 -27zM137 630q18 0 29.5 11.5t11.5 29.5q0 17 -11.5 28.5t-29.5 11.5q-17 0 -28.5 -11.5t-11.5 -28.5q0 -18 11.5 -29.5t28.5 -11.5z" />
    <glyph glyph-name="uni030B" unicode="&#x30b;" 
d="M42 596l63 134h111l-90 -134h-84zM188 596l63 134h111l-90 -134h-84z" />
    <glyph glyph-name="uni030C" unicode="&#x30c;" 
d="M42 735h81l76 -103h-20l76 103h81l-92 -139h-110z" />
    <glyph glyph-name="uni0312" unicode="&#x312;" 
d="M42 599v90l60 103h68l-54 -94h36v-99h-110z" />
    <glyph glyph-name="uni0326" unicode="&#x326;" 
d="M42 -244l54 94h-36v98h110v-89l-60 -103h-68z" />
    <glyph glyph-name="uni0327" unicode="&#x327;" 
d="M162 -224q-48 0 -78.5 22.5t-41.5 57.5l56 22q8 -21 23 -30.5t39 -9.5q25 0 38.5 10t13.5 28q0 19 -13.5 31t-58.5 12l-33 33l37 58h71l-32 -44q50 -3 73 -28.5t23 -63.5q0 -31 -15.5 -52.5t-41.5 -33.5t-60 -12z" />
    <glyph glyph-name="uni0328" unicode="&#x328;" 
d="M141 -212q-46 0 -72.5 19t-26.5 56q0 29 17.5 59t36.5 57l31 41l72 -20l-34 -45q-17 -24 -24 -39t-7 -28q0 -12 8 -18.5t20 -6.5q14 0 26 3.5t21 9.5l25 -62q-12 -11 -38.5 -18.5t-54.5 -7.5z" />
    <glyph glyph-name="uni0335" unicode="&#x335;" 
d="M116 304v75h316v-75h-316z" />
    <glyph glyph-name="uni0336" unicode="&#x336;" 
d="M20 519v90h692v-90h-692z" />
    <glyph glyph-name="uni0337" unicode="&#x337;" 
d="M40 292v77l255 120v-77z" />
    <glyph glyph-name="uni0338" unicode="&#x338;" 
d="M40 -16l384 560h80l-384 -560h-80z" />
    <glyph glyph-name="Lambda" unicode="&#x39b;" horiz-adv-x="686" 
d="M20 0l256 710h134l256 -710h-114l-209 607l-210 -607h-113z" />
    <glyph glyph-name="uni03A9" unicode="&#x3a9;" horiz-adv-x="743" 
d="M46 0v99l137 -1q-42 26 -73.5 66.5t-48.5 93.5t-17 116q0 78 23 142.5t65.5 111.5t103 72.5t135.5 25.5q101 0 174.5 -44.5t113.5 -123.5t40 -184q0 -63 -17 -116t-48 -93.5t-73 -66.5l137 1v-99h-280v99q48 1 86.5 36.5t61 95.5t22.5 133q0 82 -25.5 141t-74 90.5
t-117.5 31.5q-68 0 -116 -31.5t-73.5 -90.5t-25.5 -141q0 -73 22.5 -133t60.5 -95.5t85 -36.5v-99h-278z" />
    <glyph glyph-name="lambda" unicode="&#x3bb;" horiz-adv-x="593" 
d="M525 0q-31 0 -54 7.5t-39.5 24.5t-31 43t-29.5 62l-170 427q-12 30 -24 45t-41 15h-53v86h63q43 0 71 -14.5t49 -44.5t40 -78l170 -428q7 -18 14.5 -31.5t18.5 -20.5t29 -7h35v-86h-48zM20 0l212 524l84 -57l-186 -467h-110z" />
    <glyph glyph-name="pi" unicode="&#x3c0;" horiz-adv-x="660" 
d="M592 0q-85 0 -123.5 42t-38.5 114v343h97v-343q0 -32 17 -50.5t50 -18.5h32v-87h-34zM156 0v496h97v-496h-97zM50 445v87h578v-87h-578z" />
    <glyph glyph-name="uni0400" unicode="&#x400;" horiz-adv-x="609" 
d="M86 0v710h462v-99h-354v-207h342v-96h-342v-209h362v-99h-470zM287 779l-90 135h111l63 -135h-84z" />
    <glyph glyph-name="uni0401" unicode="&#x401;" horiz-adv-x="609" 
d="M86 0v710h462v-99h-354v-207h342v-96h-342v-209h362v-99h-470zM172 786v106h106v-106h-106zM359 786v106h107v-106h-107z" />
    <glyph glyph-name="uni0402" unicode="&#x402;" horiz-adv-x="774" 
d="M200 0v710h108v-369l-19 -32q1 46 28.5 83t75.5 58.5t106 21.5q70 0 122.5 -29t82.5 -81.5t30 -121.5q0 -73 -35.5 -127.5t-100 -83.5t-153.5 -29v99q84 0 130.5 38t46.5 102q0 62 -36 98.5t-99 36.5q-53 0 -94 -18t-63 -50t-22 -75v-231h-108zM12 611v99h506v-99h-506z
" />
    <glyph glyph-name="uni0403" unicode="&#x403;" horiz-adv-x="587" 
d="M86 0v710h490v-99h-382v-611h-108zM284 774l63 134h111l-90 -134h-84z" />
    <glyph glyph-name="uni0404" unicode="&#x404;" horiz-adv-x="746" 
d="M383 -16q-104 0 -178.5 45t-114 128t-39.5 197q0 116 39.5 199t114 128t178.5 45q87 0 153 -32t109 -91.5t59 -143.5h-115q-13 53 -42 90.5t-70 57.5t-94 20q-69 0 -118.5 -32.5t-75.5 -93.5t-26 -147q0 -84 26 -145t75.5 -93.5t118.5 -32.5q79 0 132 44t74 123h115
q-16 -83 -59 -142.5t-109 -91.5t-153 -32zM436 307h-307v95h307v-95z" />
    <glyph glyph-name="uni0405" unicode="&#x405;" horiz-adv-x="654" 
d="M342 -16q-85 0 -147.5 31t-98.5 86t-42 128l111 7q7 -50 29 -84.5t59.5 -52t90.5 -17.5q46 0 78.5 11.5t49.5 34.5t17 56q0 30 -14.5 53.5t-55 43t-118.5 38.5q-85 21 -136 46t-73.5 62.5t-22.5 92.5q0 61 29.5 107.5t84.5 72.5t132 26q81 0 138.5 -30t91 -82t41.5 -119
l-111 -6q-5 41 -25 72.5t-54 49t-83 17.5q-62 0 -97.5 -28.5t-35.5 -75.5q0 -30 14.5 -50.5t52 -35.5t106.5 -32q92 -21 146.5 -51.5t77.5 -71.5t23 -93q0 -63 -32.5 -109.5t-90.5 -71.5t-135 -25z" />
    <glyph glyph-name="uni0406" unicode="&#x406;" horiz-adv-x="284" 
d="M90 0v710h108v-710h-108z" />
    <glyph glyph-name="uni0407" unicode="&#x407;" horiz-adv-x="280" 
d="M83 0v710h108v-710h-108zM-5 788v106h106v-106h-106zM182 788v106h107v-106h-107z" />
    <glyph glyph-name="uni0408" unicode="&#x408;" horiz-adv-x="607" 
d="M298 -16q-71 0 -124.5 32.5t-82.5 90t-30 132.5l110 6q1 -80 34 -121t93 -41q63 0 96.5 43t33.5 124v460h108v-460q0 -81 -29.5 -141t-82.5 -92.5t-126 -32.5z" />
    <glyph glyph-name="uni0409" unicode="&#x409;" horiz-adv-x="1128" 
d="M61 0v99h58q27 0 42 19.5t18 52.5l46 539h459v-710h-107v611h-252l-39 -455q-6 -71 -40.5 -113.5t-103.5 -42.5h-81zM546 710h108v-266h157q81 0 139 -26.5t88.5 -76.5t30.5 -120q0 -104 -68 -162.5t-190 -58.5h-265v710zM654 346v-247h154q74 0 111.5 30.5t37.5 91.5
q0 62 -38 93.5t-111 31.5h-154z" />
    <glyph glyph-name="uni040A" unicode="&#x40a;" horiz-adv-x="1095" 
d="M86 0v710h108v-710h-108zM175 346v98h393v-98h-393zM514 710h108v-266h157q81 0 138.5 -26.5t88.5 -76.5t31 -120q0 -104 -68 -162.5t-190 -58.5h-265v710zM622 346v-247h154q73 0 111 30.5t38 91.5q0 62 -38 93.5t-111 31.5h-154z" />
    <glyph glyph-name="uni040B" unicode="&#x40b;" horiz-adv-x="772" 
d="M12 611v99h506v-99h-506zM308 710v-369l-19 -32q1 46 28.5 83t76 58.5t106.5 21.5q112 0 173 -61t61 -165v-246h-108v234q0 66 -35 103t-104 37q-53 0 -93.5 -17.5t-63 -49.5t-22.5 -74v-233h-108v710h108z" />
    <glyph glyph-name="uni040C" unicode="&#x40c;" horiz-adv-x="654" 
d="M504 0l-317 355h136l317 -355h-136zM86 0v710h108v-710h-108zM187 355l307 355h136l-307 -355h-136zM295 774l63 134h111l-90 -134h-84z" />
    <glyph glyph-name="uni040D" unicode="&#x40d;" horiz-adv-x="741" 
d="M655 0h-108v566l-323 -566h-142v710h108v-579l328 579h137v-710zM320 779l-90 135h112l63 -135h-85z" />
    <glyph glyph-name="uni040E" unicode="&#x40e;" horiz-adv-x="564" 
d="M91 0v97h81q21 0 34 9t20 28l24 62h-37l-193 514h114l150 -418l146 418h114l-223 -622q-16 -45 -47.5 -66.5t-80.5 -21.5h-102zM280 777q-64 0 -103 36.5t-42 98.5h67q5 -34 25.5 -50t52.5 -16q34 0 54 16t23 50h68q-3 -62 -41.5 -98.5t-103.5 -36.5z" />
    <glyph glyph-name="uni040F" unicode="&#x40f;" horiz-adv-x="708" 
d="M300 -150v182h108v-182h-108zM86 710h108v-611h320v611h108v-710h-536v710z" />
    <glyph glyph-name="uni0410" unicode="&#x410;" horiz-adv-x="689" 
d="M20 0l256 710h137l256 -710h-115l-65 185h-290l-64 -185h-115zM233 283h223l-112 324z" />
    <glyph glyph-name="uni0411" unicode="&#x411;" horiz-adv-x="667" 
d="M86 0v710h108v-270h157q122 0 190 -59t68 -163q0 -102 -68 -160t-190 -58h-265zM194 99h154q74 0 111.5 30t37.5 89q0 61 -37.5 92t-111.5 31h-154v-242zM93 611v99h483v-99h-483z" />
    <glyph glyph-name="uni0412" unicode="&#x412;" horiz-adv-x="688" 
d="M86 0v710h255q128 0 193 -46t65 -146q0 -45 -19 -79t-55.5 -53.5t-86.5 -20.5l-1 4q91 -2 141.5 -49.5t50.5 -124.5q0 -97 -65 -146t-185 -49h-293zM194 97h182q67 0 104.5 27.5t37.5 80.5q0 52 -37.5 81t-104.5 29h-182v-218zM194 407h145q71 0 110 27t39 76
q0 52 -37.5 77.5t-111.5 25.5h-145v-206z" />
    <glyph glyph-name="uni0413" unicode="&#x413;" horiz-adv-x="587" 
d="M86 0v710h490v-99h-382v-611h-108z" />
    <glyph glyph-name="uni0414" unicode="&#x414;" horiz-adv-x="821" 
d="M50 -150v249h38q38 0 59.5 32.5t28.5 99.5l52 479h455v-611h88v-249h-108v150h-505v-150h-108zM245 99h330v512h-248l-42 -390q-5 -40 -14.5 -70t-25.5 -52z" />
    <glyph glyph-name="uni0415" unicode="&#x415;" horiz-adv-x="609" 
d="M86 0v710h462v-99h-354v-207h342v-96h-342v-209h362v-99h-470z" />
    <glyph glyph-name="uni0416" unicode="&#x416;" horiz-adv-x="961" 
d="M14 0l286 355l-276 355h141l276 -355l-286 -355h-141zM427 0v710h108v-710h-108zM806 0l-286 355l276 355h141l-276 -355l286 -355h-141z" />
    <glyph glyph-name="uni0417" unicode="&#x417;" horiz-adv-x="665" 
d="M333 -16q-81 0 -144 26.5t-100 73t-40 107.5l111 6q4 -52 51 -83t122 -31q79 0 125 34t46 91q0 44 -23.5 71t-59.5 40.5t-76 12.5l-73 -1v92l73 -1q32 0 62.5 10.5t51 35t20.5 66.5q0 44 -39.5 68.5t-107.5 24.5q-64 0 -103.5 -23t-45.5 -63l-112 7q7 52 42.5 92.5t92 63
t127.5 22.5q77 0 135 -23.5t91 -65t33 -96.5q0 -46 -21.5 -80t-62 -55.5t-100.5 -30.5l1 17q66 -9 112.5 -35.5t70.5 -67.5t24 -94q0 -62 -36 -109.5t-99.5 -74.5t-147.5 -27z" />
    <glyph glyph-name="uni0418" unicode="&#x418;" horiz-adv-x="741" 
d="M655 0h-108v566l-323 -566h-142v710h108v-579l328 579h137v-710z" />
    <glyph glyph-name="uni0419" unicode="&#x419;" horiz-adv-x="741" 
d="M655 0h-108v566l-323 -566h-142v710h108v-579l328 579h137v-710zM366 779q-63 0 -102.5 36.5t-42.5 98.5h67q5 -34 25.5 -50t52.5 -16q34 0 54 16t24 50h67q-3 -62 -41.5 -98.5t-103.5 -36.5z" />
    <glyph glyph-name="uni041A" unicode="&#x41a;" horiz-adv-x="654" 
d="M504 0l-317 355h136l317 -355h-136zM86 0v710h108v-710h-108zM187 355l307 355h136l-307 -355h-136z" />
    <glyph glyph-name="uni041B" unicode="&#x41b;" horiz-adv-x="770" 
d="M61 0v99h58q27 0 42 19.5t18 52.5l46 539h459v-710h-107v611h-252l-39 -455q-6 -71 -40.5 -113.5t-103.5 -42.5h-81z" />
    <glyph glyph-name="uni041C" unicode="&#x41c;" horiz-adv-x="890" 
d="M86 0v710h148l211 -583l211 583h148v-710h-108v520l-191 -519h-120l-191 519v-520h-108z" />
    <glyph glyph-name="uni041D" unicode="&#x41d;" horiz-adv-x="716" 
d="M86 0v710h108v-342l-52 38h432l-52 -38v342h108v-710h-108v346l52 -38h-432l52 38v-346h-108z" />
    <glyph glyph-name="uni041E" unicode="&#x41e;" horiz-adv-x="751" 
d="M375 -16q-103 0 -177 44.5t-114 127.5t-40 198t40 198.5t114 128.5t177 45q104 0 178.5 -45t114 -128.5t39.5 -198.5t-39.5 -198t-114 -127.5t-178.5 -44.5zM375 83q69 0 118.5 32t75.5 92.5t26 146.5t-26 147t-75.5 93.5t-118.5 32.5q-68 0 -117 -32.5t-75.5 -93.5
t-26.5 -147t26.5 -146.5t75.5 -92.5t117 -32z" />
    <glyph glyph-name="uni041F" unicode="&#x41f;" horiz-adv-x="708" 
d="M86 0v710h536v-710h-108v611h-320v-611h-108z" />
    <glyph glyph-name="uni0420" unicode="&#x420;" horiz-adv-x="657" 
d="M86 0v710h265q122 0 190 -58.5t68 -162.5q0 -69 -31 -119.5t-88.5 -77t-138.5 -26.5h-157v-266h-108zM194 364h154q73 0 111 31.5t38 93.5q0 61 -38 91.5t-111 30.5h-154v-247z" />
    <glyph glyph-name="uni0421" unicode="&#x421;" horiz-adv-x="708" 
d="M366 -16q-96 0 -169 44.5t-114 127.5t-41 198q0 114 40.5 197.5t113.5 129t171 45.5q132 0 205 -66t95 -183l-113 -6q-14 73 -60 114.5t-127 41.5q-65 0 -112.5 -33t-74 -94t-26.5 -146t26.5 -146t74.5 -93t111 -32q86 0 133.5 45.5t59.5 125.5l113 -6q-13 -81 -52 -140
t-103 -91.5t-151 -32.5z" />
    <glyph glyph-name="uni0422" unicode="&#x422;" horiz-adv-x="584" 
d="M218 0v611h-218v99h544v-99h-218v-611h-108z" />
    <glyph glyph-name="uni0423" unicode="&#x423;" horiz-adv-x="564" 
d="M91 0v97h81q21 0 34 9t20 28l24 62h-37l-193 514h114l150 -418l146 418h114l-223 -622q-16 -45 -47.5 -66.5t-80.5 -21.5h-102z" />
    <glyph glyph-name="uni0424" unicode="&#x424;" horiz-adv-x="844" 
d="M420 73q-111 0 -196 36t-132.5 99.5t-47.5 146.5q0 84 47.5 147t132.5 99t196 36q112 0 197.5 -36t134 -99t48.5 -147q0 -83 -48.5 -146.5t-134 -99.5t-197.5 -36zM420 172q83 0 142.5 22.5t92 63.5t32.5 97t-32.5 97t-92 63.5t-142.5 22.5q-80 0 -139.5 -22.5t-92 -63.5
t-32.5 -97t32.5 -97t92 -63.5t139.5 -22.5zM370 0v710h103v-710h-103z" />
    <glyph glyph-name="uni0425" unicode="&#x425;" horiz-adv-x="633" 
d="M14 0l236 356l-234 354h127l175 -270l172 270h126l-234 -352l237 -358h-127l-176 274l-176 -274h-126z" />
    <glyph glyph-name="uni0426" unicode="&#x426;" horiz-adv-x="783" 
d="M609 -150v249h108v-249h-108zM454 0v99h170v-99h-170zM86 710h108v-611h320v611h108v-710h-536v710z" />
    <glyph glyph-name="uni0427" unicode="&#x427;" horiz-adv-x="659" 
d="M465 0v369l18 32q0 -46 -28 -83t-75.5 -58.5t-107.5 -21.5q-112 0 -172.5 61t-60.5 165v246h108v-234q0 -65 35 -102.5t103 -37.5q54 0 94.5 17.5t63 49.5t22.5 74v233h108v-710h-108z" />
    <glyph glyph-name="uni0428" unicode="&#x428;" horiz-adv-x="935" 
d="M86 0v710h108v-710h-108zM86 0v99h763v-99h-763zM413 0v710h109v-710h-109zM741 0v710h108v-710h-108z" />
    <glyph glyph-name="uni0429" unicode="&#x429;" horiz-adv-x="1010" 
d="M836 -150v249h108v-249h-108zM753 0v99h169v-99h-169zM86 0v710h108v-710h-108zM86 0v99h763v-99h-763zM413 0v710h109v-710h-109zM741 0v710h108v-710h-108z" />
    <glyph glyph-name="uni042A" unicode="&#x42a;" horiz-adv-x="744" 
d="M66 611v99h200v-99h-200zM173 710h108v-266h157q81 0 138.5 -26.5t88.5 -76.5t31 -120q0 -104 -68 -162.5t-190 -58.5h-265v710zM281 346v-247h154q73 0 111 30.5t38 91.5q0 62 -38 93.5t-111 31.5h-154z" />
    <glyph glyph-name="uni042B" unicode="&#x42b;" horiz-adv-x="879" 
d="M685 0v710h108v-710h-108zM86 710h108v-266h157q81 0 138.5 -26.5t88.5 -76.5t31 -120q0 -104 -68 -162.5t-190 -58.5h-265v710zM194 346v-247h154q73 0 111 30.5t38 91.5q0 62 -38 93.5t-111 31.5h-154z" />
    <glyph glyph-name="uni042C" unicode="&#x42c;" horiz-adv-x="667" 
d="M86 710h108v-266h157q81 0 138.5 -26.5t88.5 -76.5t31 -120q0 -104 -68 -162.5t-190 -58.5h-265v710zM194 346v-247h154q73 0 111 30.5t38 91.5q0 62 -38 93.5t-111 31.5h-154z" />
    <glyph glyph-name="uni042D" unicode="&#x42d;" horiz-adv-x="741" 
d="M365 -16q-86 0 -152.5 32t-109.5 91.5t-59 142.5h115q21 -79 74 -123t132 -44q70 0 119 32.5t75 93.5t26 145q0 86 -26 147t-75 93.5t-119 32.5q-52 0 -93.5 -20t-70 -57.5t-42.5 -90.5h-115q16 84 59 143.5t109.5 91.5t152.5 32q105 0 179 -45t113.5 -128t39.5 -199
q0 -114 -39.5 -197t-113.5 -128t-179 -45zM312 307v95h307v-95h-307z" />
    <glyph glyph-name="uni042E" unicode="&#x42e;" horiz-adv-x="1009" 
d="M86 0v710h108v-710h-108zM180 306v98h189v-98h-189zM633 -16q-104 0 -178 44.5t-114 127.5t-40 198t40 198.5t114 128.5t178 45t178 -45t114 -128.5t40 -198.5t-40 -198t-114 -127.5t-178 -44.5zM633 83q69 0 118 32t75 92.5t26 146.5t-26 147t-75 93.5t-118 32.5
t-118 -32.5t-75 -93.5t-26 -147t26 -146.5t75 -92.5t118 -32z" />
    <glyph glyph-name="uni042F" unicode="&#x42f;" horiz-adv-x="688" 
d="M602 0h-108v278h-153h-5h-5l-155 -278h-118l166 295q-70 21 -107.5 73t-37.5 124q0 103 68 160.5t190 57.5h265v-710zM494 376v235h-154q-71 0 -110 -30.5t-39 -87.5t39 -87t110 -30h154z" />
    <glyph glyph-name="uni0430" unicode="&#x430;" horiz-adv-x="565" 
d="M224 -12q-83 0 -132.5 38t-49.5 107t41.5 107.5t128.5 55.5l183 35q0 62 -29 92.5t-86 30.5q-51 0 -80 -22.5t-40 -66.5l-109 7q15 80 74.5 126t154.5 46q108 0 164.5 -57.5t56.5 -161.5v-207q0 -19 6.5 -26.5t21.5 -7.5h19v-84q-5 -1 -16 -2t-23 -1q-34 0 -58.5 11
t-36.5 36.5t-12 68.5l11 -5q-8 -35 -34.5 -62t-67 -42.5t-87.5 -15.5zM241 72q48 0 82 18.5t53 51.5t19 75v34l-156 -30q-48 -9 -67.5 -28.5t-19.5 -49.5q0 -34 23.5 -52.5t65.5 -18.5z" />
    <glyph glyph-name="uni0431" unicode="&#x431;" horiz-adv-x="608" 
d="M305 -16q-50 0 -99 19t-88 63q-37 38 -55.5 102.5t-18.5 145.5q0 97 18.5 162t59 107t105.5 70q34 15 52.5 29.5t26 33.5t7.5 47l100 1q0 -62 -25 -106t-88 -73q-35 -17 -64 -33.5t-50.5 -41t-32 -64t-7.5 -103.5l-22 2q16 45 44 76.5t67 48t85 16.5q74 0 128.5 -31.5
t85 -87.5t30.5 -130q0 -77 -32.5 -134.5t-91 -88t-135.5 -30.5zM307 76q43 0 76.5 20.5t52 57t18.5 83.5q0 46 -17.5 81.5t-49.5 55.5t-74 20q-45 0 -79.5 -20t-54.5 -55.5t-21 -81.5q-1 -47 18 -83.5t53 -57t78 -20.5z" />
    <glyph glyph-name="uni0432" unicode="&#x432;" horiz-adv-x="601" 
d="M75 0v532h228q99 0 155 -39t56 -109q0 -50 -37.5 -79.5t-102.5 -30.5v2q75 -1 118.5 -34.5t43.5 -90.5q0 -71 -54 -111t-150 -40h-257zM182 85h147q44 0 70 19t26 51q0 35 -26 55t-70 20h-147v-145zM182 310h120q46 0 73.5 19t27.5 51q0 31 -27.5 49t-73.5 18h-120v-137z
" />
    <glyph glyph-name="uni0433" unicode="&#x433;" horiz-adv-x="489" 
d="M75 0v532h383v-87h-331l54 47v-492h-106z" />
    <glyph glyph-name="uni0434" unicode="&#x434;" horiz-adv-x="706" 
d="M39 27v59h44q32 0 49.5 23.5t24.5 72.5l48 350h377v-532h-106v445h-181l-37 -270q-11 -76 -50 -112t-111 -36h-58zM39 -150v217h106v-217h-106zM41 0v86h585v-86h-585zM562 -150v236h106v-236h-106z" />
    <glyph glyph-name="uni0435" unicode="&#x435;" horiz-adv-x="576" 
d="M294 -12q-78 0 -134.5 34t-87 97t-30.5 147t30.5 146.5t86.5 97t132 34.5q72 0 127 -33.5t85.5 -96.5t30.5 -152v-27h-382q4 -78 41.5 -117t101.5 -39q47 0 78 22t43 59l110 -7q-21 -74 -82.5 -119.5t-149.5 -45.5zM152 315h270q-5 71 -40.5 105t-90.5 34
q-57 0 -93.5 -35.5t-45.5 -103.5z" />
    <glyph glyph-name="uni0436" unicode="&#x436;" horiz-adv-x="904" 
d="M47 0l229 266h134l-226 -266h-137zM400 0v532h106v-532h-106zM722 0l-227 266h133l229 -266h-135zM495 266l217 266h135l-219 -266h-133zM276 266l-219 266h137l216 -266h-134z" />
    <glyph glyph-name="uni0437" unicode="&#x437;" horiz-adv-x="544" 
d="M268 -12q-67 0 -118 20t-79 57.5t-31 88.5l110 4q3 -36 34.5 -58t83.5 -22q53 0 84.5 20.5t31.5 55.5q0 41 -30 64t-80 22l-52 -1v84l52 -1q42 -1 67 19t25 53q0 31 -27 49t-72 18q-41 0 -67 -17t-30 -46l-111 5q8 66 64 103.5t145 37.5q96 0 152 -40t56 -110
q0 -43 -38 -74t-105 -41l1 13q74 -11 116.5 -50.5t42.5 -96.5q0 -73 -60.5 -115t-164.5 -42z" />
    <glyph glyph-name="uni0438" unicode="&#x438;" horiz-adv-x="581" 
d="M75 0v532h106v-374l212 374h112v-532h-106v365l-206 -365h-118z" />
    <glyph glyph-name="uni0439" unicode="&#x439;" horiz-adv-x="581" 
d="M75 0v532h106v-374l212 374h112v-532h-106v365l-206 -365h-118zM286 599q-64 0 -103 36.5t-42 98.5h67q5 -34 25.5 -50t52.5 -16q34 0 54 16t23 50h68q-3 -62 -41.5 -98.5t-103.5 -36.5z" />
    <glyph glyph-name="uni043A" unicode="&#x43a;" horiz-adv-x="612" 
d="M426 0l-250 266h132l257 -266h-139zM75 0v532h108v-532h-108zM176 266l240 266h137l-245 -266h-132z" />
    <glyph glyph-name="uni043B" unicode="&#x43b;" horiz-adv-x="677" 
d="M55 0v95h43q26 0 40 18.5t18 53.5l40 365h406v-532h-106v445h-204l-31 -297q-7 -73 -40 -110.5t-93 -37.5h-73z" />
    <glyph glyph-name="uni043C" unicode="&#x43c;" horiz-adv-x="729" 
d="M75 0v532h137l153 -428l153 428h135v-532h-106v347l-130 -347h-105l-131 347v-347h-106z" />
    <glyph glyph-name="uni043D" unicode="&#x43d;" horiz-adv-x="586" 
d="M75 0v532h106v-532h-106zM405 0v532h106v-532h-106zM114 222v86h354v-86h-354z" />
    <glyph glyph-name="uni043E" unicode="&#x43e;" horiz-adv-x="588" 
d="M294 -12q-76 0 -133 34t-88 97t-31 147q0 85 31 147t88 96.5t133 34.5t133 -34.5t88 -96.5t31 -147q0 -84 -31 -147t-88 -97t-133 -34zM294 80q68 0 105 49.5t37 136.5t-37 136.5t-105 49.5q-67 0 -104.5 -49.5t-37.5 -136.5t37.5 -136.5t104.5 -49.5z" />
    <glyph glyph-name="uni043F" unicode="&#x43f;" horiz-adv-x="591" 
d="M75 0v532h441v-532h-106v445h-229v-445h-106z" />
    <glyph glyph-name="uni0440" unicode="&#x440;" horiz-adv-x="608" 
d="M75 -150v682h100l3 -114l-12 6q20 59 66 89.5t106 30.5q78 0 128.5 -38.5t75 -101.5t24.5 -138t-24.5 -138t-75 -101.5t-128.5 -38.5q-40 0 -75 14t-59.5 39.5t-34.5 60.5l12 12v-264h-106zM319 80q64 0 100.5 49t36.5 137t-36.5 137t-100.5 49q-42 0 -73 -20.5
t-48 -62.5t-17 -103t16.5 -103t48 -62.5t73.5 -20.5z" />
    <glyph glyph-name="uni0441" unicode="&#x441;" horiz-adv-x="563" 
d="M294 -12q-76 0 -133 34t-88 97t-31 147t31 146.5t88 97t133 34.5q65 0 115.5 -22.5t82 -65.5t40.5 -105l-111 -6q-8 52 -42 79.5t-85 27.5q-67 0 -104.5 -49.5t-37.5 -136.5t37.5 -136.5t104.5 -49.5q51 0 85 28.5t42 86.5l111 -6q-9 -61 -40.5 -106t-82 -70t-115.5 -25z
" />
    <glyph glyph-name="uni0442" unicode="&#x442;" horiz-adv-x="567" 
d="M232 0v445h-188v87h482v-87h-187v-445h-107z" />
    <glyph glyph-name="uni0443" unicode="&#x443;" horiz-adv-x="553" 
d="M105 -150v87h65q27 0 40 8t20 27l17 44h-33l-192 516h112l146 -418l139 418h113l-212 -594q-16 -46 -47.5 -67t-87.5 -21h-80z" />
    <glyph glyph-name="uni0444" unicode="&#x444;" horiz-adv-x="668" 
d="M334 24q-88 0 -153.5 31t-102 86t-36.5 128q0 74 36.5 128.5t102 85.5t153.5 31t153.5 -31t102.5 -85.5t37 -128.5q0 -73 -37 -128t-102.5 -86t-153.5 -31zM334 119q84 0 133 40.5t49 109.5t-49 109.5t-133 40.5t-133 -40.5t-49 -109.5t49 -109.5t133 -40.5zM284 -151
v861h102v-861h-102z" />
    <glyph glyph-name="uni0445" unicode="&#x445;" horiz-adv-x="607" 
d="M47 0l193 272l-185 260h118l131 -191l127 191h121l-183 -262l191 -270h-118l-137 203l-138 -203h-120z" />
    <glyph glyph-name="uni0446" unicode="&#x446;" horiz-adv-x="673" 
d="M501 -151v237h107v-237h-107zM405 0v86h118v-86h-118zM75 532h106v-445h229v445h106v-532h-441v532z" />
    <glyph glyph-name="uni0447" unicode="&#x447;" horiz-adv-x="617" 
d="M435 0v290l17 32q0 -46 -23.5 -83t-62.5 -58.5t-88 -21.5q-93 0 -148 61t-55 165v147h106v-135q0 -67 30 -106.5t81 -39.5q44 0 76.5 18t49.5 51t17 78v134h107v-532h-107z" />
    <glyph glyph-name="uni0448" unicode="&#x448;" horiz-adv-x="816" 
d="M75 0v532h106v-532h-106zM75 0v86h666v-86h-666zM356 0v532h105v-532h-105zM635 0v532h106v-532h-106z" />
    <glyph glyph-name="uni0449" unicode="&#x449;" horiz-adv-x="892" 
d="M730 -151v237h107v-237h-107zM634 0v86h118v-86h-118zM75 0v532h106v-532h-106zM75 0v86h666v-86h-666zM356 0v532h105v-532h-105zM635 0v532h106v-532h-106z" />
    <glyph glyph-name="uni044A" unicode="&#x44a;" horiz-adv-x="654" 
d="M55 445v87h172v-87h-172zM140 0v532h106v-194h129q116 0 177 -44t61 -126q0 -81 -61 -124.5t-177 -43.5h-235zM246 85h125q66 0 99 20.5t33 62.5t-33 63.5t-99 21.5h-125v-168z" />
    <glyph glyph-name="uni044B" unicode="&#x44b;" horiz-adv-x="820" 
d="M638 0v532h106v-532h-106zM75 0v532h106v-194h130q115 0 176 -44t61 -126q0 -81 -61 -124.5t-176 -43.5h-236zM181 85h125q67 0 99.5 20.5t32.5 62.5t-32.5 63.5t-99.5 21.5h-125v-168z" />
    <glyph glyph-name="uni044C" unicode="&#x44c;" horiz-adv-x="590" 
d="M75 0v532h106v-194h130q115 0 176 -44t61 -126q0 -81 -61 -124.5t-176 -43.5h-236zM181 85h125q67 0 99.5 20.5t32.5 62.5t-32.5 63.5t-99.5 21.5h-125v-168z" />
    <glyph glyph-name="uni044D" unicode="&#x44d;" horiz-adv-x="580" 
d="M285 -12q-93 0 -157.5 52.5t-84.5 145.5h112q14 -51 47.5 -78.5t82.5 -27.5q69 0 106 49.5t37 136.5t-37 136.5t-106 49.5q-50 0 -83.5 -28.5t-47.5 -80.5h-112q20 94 84.5 147.5t158.5 53.5q77 0 134 -34.5t88 -96.5t31 -147q0 -84 -31 -147t-88 -97t-134 -34zM263 225
v82h234v-82h-234z" />
    <glyph glyph-name="uni044E" unicode="&#x44e;" horiz-adv-x="808" 
d="M75 0v532h106v-532h-106zM127 223v86h199v-86h-199zM515 -12q-76 0 -133 34t-88.5 97t-31.5 147q0 85 31.5 147t88.5 96.5t133 34.5t132.5 -34.5t88 -96.5t31.5 -147q0 -84 -31.5 -147t-88 -97t-132.5 -34zM515 80q67 0 104.5 49.5t37.5 136.5t-37.5 136.5t-104.5 49.5
q-68 0 -105.5 -49.5t-37.5 -136.5t37.5 -136.5t105.5 -49.5z" />
    <glyph glyph-name="uni044F" unicode="&#x44f;" horiz-adv-x="601" 
d="M75 0l128 219q-55 22 -85.5 60.5t-30.5 89.5q0 79 57 121t164 42h218v-532h-106v201h-111l-117 -201h-117zM308 285h112v163h-112q-52 0 -81 -21t-29 -60t29 -60.5t81 -21.5z" />
    <glyph glyph-name="uni0450" unicode="&#x450;" horiz-adv-x="576" 
d="M294 -12q-78 0 -134.5 34t-87 97t-30.5 147t30.5 146.5t86.5 97t132 34.5q72 0 127 -33.5t85.5 -96.5t30.5 -152v-27h-382q4 -78 41.5 -117t101.5 -39q47 0 78 22t43 59l110 -7q-21 -74 -82.5 -119.5t-149.5 -45.5zM152 315h270q-5 71 -40.5 105t-90.5 34
q-57 0 -93.5 -35.5t-45.5 -103.5zM258 599l-90 135h111l63 -135h-84z" />
    <glyph glyph-name="uni0451" unicode="&#x451;" horiz-adv-x="576" 
d="M294 -12q-78 0 -134.5 34t-87 97t-30.5 147t30.5 146.5t86.5 97t132 34.5q72 0 127 -33.5t85.5 -96.5t30.5 -152v-27h-382q4 -78 41.5 -117t101.5 -39q47 0 78 22t43 59l110 -7q-21 -74 -82.5 -119.5t-149.5 -45.5zM152 315h270q-5 71 -40.5 105t-90.5 34
q-57 0 -93.5 -35.5t-45.5 -103.5zM148 606v106h106v-106h-106zM335 606v106h107v-106h-107z" />
    <glyph glyph-name="uni0452" unicode="&#x452;" horiz-adv-x="628" 
d="M112 0v713h106v-301l-15 6q11 45 36 73t60.5 40.5t74.5 12.5q55 0 95 -25t62 -70t22 -107v-328h-106v290q0 73 -25 109.5t-78 36.5q-58 0 -92 -37.5t-34 -108.5v-304h-106zM349 -150v87h39q18 0 31 8.5t20.5 24.5t7.5 37v233h106v-233q0 -73 -37 -115t-112 -42h-55z
M55 583v78h277v-78h-277z" />
    <glyph glyph-name="uni0453" unicode="&#x453;" horiz-adv-x="489" 
d="M75 0v532h383v-87h-331l54 47v-492h-106zM219 596l63 134h111l-90 -134h-84z" />
    <glyph glyph-name="uni0454" unicode="&#x454;" horiz-adv-x="580" 
d="M294 -12q-76 0 -133 34t-88 97t-31 147q0 85 31 147t88 96.5t133 34.5q95 0 159.5 -53.5t84.5 -147.5h-112q-14 52 -47.5 80.5t-84.5 28.5q-67 0 -104.5 -49.5t-37.5 -136.5t37.5 -136.5t104.5 -49.5q49 0 83 27.5t48 78.5h112q-20 -93 -84.5 -145.5t-158.5 -52.5z
M316 225h-234v82h234v-82z" />
    <glyph glyph-name="uni0455" unicode="&#x455;" horiz-adv-x="540" 
d="M280 -12q-75 0 -126.5 23t-79.5 63.5t-32 93.5l109 5q8 -44 38 -70t91 -26q50 0 79 16t29 51q0 19 -9.5 32.5t-36.5 23t-80 18.5q-79 15 -124 35t-64 51t-19 75q0 73 54.5 119t157.5 46q69 0 116 -23.5t73.5 -63t33.5 -88.5l-109 -6q-5 28 -19.5 48.5t-38.5 32t-57 11.5
q-51 0 -76 -20t-25 -52q0 -24 11.5 -39t37.5 -24.5t69 -16.5q83 -14 130 -34.5t66 -50.5t19 -73q0 -50 -28 -85t-77 -53.5t-113 -18.5z" />
    <glyph glyph-name="uni0456" unicode="&#x456;" horiz-adv-x="256" 
d="M75 0v532h106v-532h-106zM73 609v106h110v-106h-110z" />
    <glyph glyph-name="uni0457" unicode="&#x457;" horiz-adv-x="256" 
d="M75 0v532h106v-532h-106zM-18 608v106h106v-106h-106zM169 608v106h107v-106h-107z" />
    <glyph glyph-name="uni0458" unicode="&#x458;" horiz-adv-x="284" 
d="M-4 -150v87h48q27 0 42.5 12t15.5 46v537h107v-541q0 -76 -34.5 -108.5t-114.5 -32.5h-64zM101 609v106h110v-106h-110z" />
    <glyph glyph-name="uni0459" unicode="&#x459;" horiz-adv-x="1011" 
d="M496 0v532h106v-194h130q115 0 176 -44t61 -126q0 -81 -61 -124.5t-176 -43.5h-236zM602 85h125q67 0 99.5 20.5t32.5 62.5t-32.5 63.5t-99.5 21.5h-125v-168zM55 0v95h43q26 0 40 18.5t18 53.5l40 365h406v-532h-106v445h-204l-31 -297q-7 -73 -40 -110.5t-93 -37.5h-73
z" />
    <glyph glyph-name="uni045A" unicode="&#x45a;" horiz-adv-x="919" 
d="M75 0v532h106v-532h-106zM83 251v87h416v-87h-416zM404 0v532h106v-194h130q116 0 177 -44t61 -126q0 -81 -61 -124.5t-177 -43.5h-236zM510 85h126q66 0 99 20.5t33 62.5t-33 63.5t-99 21.5h-126v-168z" />
    <glyph glyph-name="uni045B" unicode="&#x45b;" horiz-adv-x="591" 
d="M75 0v710h106v-298l-13 2q9 45 33 73.5t59 42.5t77 14q58 0 98 -25.5t60.5 -71.5t20.5 -105v-342h-106v314q0 72 -24.5 106.5t-76.5 34.5q-58 0 -93 -36.5t-35 -106.5v-312h-106zM6 580v75h316v-75h-316z" />
    <glyph glyph-name="uni045C" unicode="&#x45c;" horiz-adv-x="612" 
d="M426 0l-250 266h132l257 -266h-139zM75 0v532h108v-532h-108zM176 266l240 266h137l-245 -266h-132zM252 596l63 134h111l-90 -134h-84z" />
    <glyph glyph-name="uni045D" unicode="&#x45d;" horiz-adv-x="581" 
d="M75 0v532h106v-374l212 374h112v-532h-106v365l-206 -365h-118zM251 601l-90 135h111l63 -135h-84z" />
    <glyph glyph-name="uni045E" unicode="&#x45e;" horiz-adv-x="553" 
d="M105 -150v87h65q27 0 40 8t20 27l17 44h-33l-192 516h112l146 -418l139 418h113l-212 -594q-16 -46 -47.5 -67t-87.5 -21h-80zM273 599q-64 0 -103 36.5t-42 98.5h67q5 -34 25.5 -50t52.5 -16q34 0 54 16t23 50h68q-3 -62 -41.5 -98.5t-103.5 -36.5z" />
    <glyph glyph-name="uni045F" unicode="&#x45f;" horiz-adv-x="591" 
d="M242 -151v180h106v-180h-106zM75 532h106v-445h229v445h106v-532h-441v532z" />
    <glyph glyph-name="uni0462" unicode="&#x462;" horiz-adv-x="747" 
d="M56 530v86h328v-86h-328zM165 710h108v-266h157q81 0 139 -26.5t88.5 -76.5t30.5 -120q0 -104 -68 -162.5t-190 -58.5h-265v710zM273 346v-247h154q74 0 111.5 30.5t37.5 91.5q0 62 -38 93.5t-111 31.5h-154z" />
    <glyph glyph-name="uni0463" unicode="&#x463;" horiz-adv-x="683" 
d="M168 0v713h106v-355h130q114 0 176 -46.5t62 -133.5q0 -86 -62 -132t-176 -46h-236zM274 85h126q63 0 97 24t34 69t-34 70t-97 25h-126v-188zM55 531v85h332v-85h-332z" />
    <glyph glyph-name="uni046A" unicode="&#x46a;" horiz-adv-x="703" 
d="M14 0l104 279q20 56 54.5 82.5t77.5 26.5h202q44 0 78.5 -26.5t53.5 -82.5l105 -279h-115l-85 234q-12 34 -26.5 45t-36.5 11h-148q-23 0 -37.5 -11t-26.5 -45l-85 -234h-115zM299 0v388h106v-388h-106zM299 299l-215 312h119l215 -312h-119zM286 299l216 312h118
l-215 -312h-119zM84 611v99h536v-99h-536z" />
    <glyph glyph-name="uni046B" unicode="&#x46b;" horiz-adv-x="722" 
d="M47 0l94 209q17 39 51.5 59t74.5 20h188q41 0 75.5 -20t51.5 -59l94 -209h-114l-71 173q-10 25 -25 34t-40 9h-130q-24 0 -39.5 -9t-24.5 -34l-72 -173h-113zM309 0v288h104v-288h-104zM300 234l-204 213h115l205 -213h-116zM308 234l205 213h115l-205 -213h-115zM96 447
v85h532v-85h-532z" />
    <glyph glyph-name="uni0472" unicode="&#x472;" horiz-adv-x="751" 
d="M120 290l-6 112q26 15 50.5 23.5t48.5 10.5q31 4 71 -1.5t74 -19.5q41 -15 67.5 -24t45 -13.5t33 -5t29.5 1.5q26 3 49 12.5t46 28.5l5 -109q-21 -13 -43 -20.5t-43 -10.5t-42.5 -1t-54 11.5t-87.5 29.5q-35 14 -72.5 19.5t-63.5 2.5q-30 -4 -56.5 -15.5t-50.5 -31.5z
M375 -16q-103 0 -177 44.5t-114 127.5t-40 198t40 198.5t114 128.5t177 45q104 0 178.5 -45t114 -128.5t39.5 -198.5t-39.5 -198t-114 -127.5t-178.5 -44.5zM375 83q69 0 118.5 32t75.5 92.5t26 146.5t-26 147t-75.5 93.5t-118.5 32.5q-68 0 -117 -32.5t-75.5 -93.5
t-26.5 -147t26.5 -146.5t75.5 -92.5t117 -32z" />
    <glyph glyph-name="uni0473" unicode="&#x473;" horiz-adv-x="588" 
d="M94 201l-7 98q22 16 41 24.5t39 9.5q25 3 56.5 -1.5t60.5 -17.5q34 -16 56 -24.5t36 -12t25 -4t24 0.5q21 2 40 12.5t36 29.5l6 -96q-18 -13 -35 -22t-35 -9q-17 -1 -33.5 0.5t-42 9.5t-71.5 28q-30 14 -59 18.5t-52 3.5q-22 -2 -44 -15t-41 -33zM294 -12q-76 0 -133 34
t-88 97t-31 147q0 85 31 147t88 96.5t133 34.5t133 -34.5t88 -96.5t31 -147q0 -84 -31 -147t-88 -97t-133 -34zM294 80q68 0 105 49.5t37 136.5t-37 136.5t-105 49.5q-67 0 -104.5 -49.5t-37.5 -136.5t37.5 -136.5t104.5 -49.5z" />
    <glyph glyph-name="uni0474" unicode="&#x474;" horiz-adv-x="739" 
d="M277 0l-257 710h115l209 -589l160 452q22 64 67.5 100.5t103.5 36.5h44v-99h-16q-38 0 -60.5 -19.5t-41.5 -68.5l-190 -523h-134z" />
    <glyph glyph-name="uni0475" unicode="&#x475;" horiz-adv-x="605" 
d="M216 0l-194 532h111l147 -423l101 293q22 64 67 97t106 33h29v-87h-10q-33 0 -56 -18t-37 -54l-136 -373h-128z" />
    <glyph glyph-name="uni0490" unicode="&#x490;" horiz-adv-x="526" 
d="M86 0v710h429v-99h-321v-611h-108zM407 611v254h108v-254h-108z" />
    <glyph glyph-name="uni0491" unicode="&#x491;" horiz-adv-x="443" 
d="M75 0v532h346v-87h-240v-445h-106zM314 449v238h107v-238h-107z" />
    <glyph glyph-name="uni0492" unicode="&#x492;" horiz-adv-x="640" 
d="M66 279v98h418v-98h-418zM139 0v710h490v-99h-382v-611h-108z" />
    <glyph glyph-name="uni0493" unicode="&#x493;" horiz-adv-x="538" 
d="M55 221v86h320v-86h-320zM113 0v532h383v-87h-331l54 47v-492h-106z" />
    <glyph glyph-name="uni0496" unicode="&#x496;" horiz-adv-x="999" 
d="M882 -150v228h108v-228h-108zM14 0l286 355l-276 355h141l276 -355l-286 -355h-141zM427 0v710h108v-710h-108zM806 0l-286 355l276 355h141l-276 -355l286 -355h-141z" />
    <glyph glyph-name="uni0497" unicode="&#x497;" horiz-adv-x="914" 
d="M761 -151v225h106v-225h-106zM47 0l229 266h134l-226 -266h-137zM400 0v532h106v-532h-106zM722 0l-227 266h133l229 -266h-135zM495 266l217 266h135l-219 -266h-133zM276 266l-219 266h137l216 -266h-134z" />
    <glyph glyph-name="uni049A" unicode="&#x49a;" horiz-adv-x="682" 
d="M560 -150v228h108v-228h-108zM504 0l-317 355h136l317 -355h-136zM86 0v710h108v-710h-108zM187 355l307 355h136l-307 -355h-136z" />
    <glyph glyph-name="uni049B" unicode="&#x49b;" horiz-adv-x="627" 
d="M474 -151v225h106v-225h-106zM426 0l-250 266h132l257 -266h-139zM75 0v532h108v-532h-108zM176 266l240 266h137l-245 -266h-132z" />
    <glyph glyph-name="uni04A2" unicode="&#x4a2;" horiz-adv-x="763" 
d="M589 -150v228h108v-228h-108zM86 0v710h108v-342l-52 38h432l-52 -38v342h108v-710h-108v346l52 -38h-432l52 38v-346h-108z" />
    <glyph glyph-name="uni04A3" unicode="&#x4a3;" horiz-adv-x="669" 
d="M488 -151v225h106v-225h-106zM75 0v532h106v-532h-106zM405 0v532h106v-532h-106zM114 222v86h354v-86h-354z" />
    <glyph glyph-name="uni04AE" unicode="&#x4ae;" horiz-adv-x="594" 
d="M243 0v285l-249 425h124l179 -317l180 317h124l-250 -425v-285h-108z" />
    <glyph glyph-name="uni04AF" unicode="&#x4af;" horiz-adv-x="560" 
d="M227 0l-205 532h111l147 -413l147 413h112l-206 -532h-106zM227 -150v208h106v-208h-106z" />
    <glyph glyph-name="uni04B0" unicode="&#x4b0;" horiz-adv-x="659" 
d="M115 215v98h436v-98h-436zM251 0v285l-250 425h124l180 -317l179 317h124l-249 -425v-285h-108z" />
    <glyph glyph-name="uni04B1" unicode="&#x4b1;" horiz-adv-x="560" 
d="M110 -43v86h341v-86h-341zM227 0l-205 532h111l147 -413l147 413h112l-206 -532h-106zM227 -150v208h106v-208h-106z" />
    <glyph glyph-name="uni04B2" unicode="&#x4b2;" horiz-adv-x="687" 
d="M565 -150v228h108v-228h-108zM14 0l236 356l-234 354h127l175 -270l172 270h126l-234 -352l237 -358h-127l-176 274l-176 -274h-126z" />
    <glyph glyph-name="uni04B3" unicode="&#x4b3;" horiz-adv-x="642" 
d="M489 -151v225h106v-225h-106zM47 0l193 272l-185 260h118l131 -191l127 191h121l-183 -262l191 -270h-118l-137 203l-138 -203h-120z" />
    <glyph glyph-name="uni04B6" unicode="&#x4b6;" horiz-adv-x="717" 
d="M543 -150v228h108v-228h-108zM465 0v369l18 32q0 -46 -28 -83t-75.5 -58.5t-107.5 -21.5q-112 0 -172.5 61t-60.5 165v246h108v-234q0 -65 35 -102.5t103 -37.5q54 0 94.5 17.5t63 49.5t22.5 74v233h108v-710h-108z" />
    <glyph glyph-name="uni04B7" unicode="&#x4b7;" horiz-adv-x="683" 
d="M517 -150v224h106v-224h-106zM435 0v290l17 32q0 -46 -23.5 -83t-62.5 -58.5t-88 -21.5q-93 0 -148 61t-55 165v147h106v-135q0 -67 30 -106.5t81 -39.5q44 0 76.5 18t49.5 51t17 78v134h107v-532h-107z" />
    <glyph glyph-name="uni04BA" unicode="&#x4ba;" horiz-adv-x="659" 
d="M194 710v-369l-19 -32q1 46 29 83t76 58.5t107 21.5q112 0 172.5 -61t60.5 -165v-246h-108v234q0 66 -35 103t-103 37q-53 0 -94 -17.5t-63.5 -49.5t-22.5 -74v-233h-108v710h108z" />
    <glyph glyph-name="uni04BB" unicode="&#x4bb;" horiz-adv-x="591" 
d="M75 0v710h106v-298l-13 2q9 45 33 73.5t59 42.5t77 14q58 0 98 -25.5t60.5 -71.5t20.5 -105v-342h-106v314q0 72 -24.5 106.5t-76.5 34.5q-58 0 -93 -36.5t-35 -106.5v-312h-106z" />
    <glyph glyph-name="uni04C0" unicode="&#x4c0;" horiz-adv-x="280" 
d="M86 0v710h108v-710h-108z" />
    <glyph glyph-name="uni04CF" unicode="&#x4cf;" horiz-adv-x="278" 
d="M86 0v710h106v-710h-106z" />
    <glyph glyph-name="uni04D8" unicode="&#x4d8;" horiz-adv-x="728" 
d="M583 299h-423q9 -71 35 -119t67 -72.5t95 -24.5q61 0 109.5 28.5t77 85.5t28.5 140v29q0 83 -29 141.5t-78 89t-109 30.5q-39 0 -73 -14t-60 -43t-44 -72l-114 9q22 68 63.5 116.5t99.5 75.5t128 27q99 0 173 -45t114.5 -128t40.5 -198q0 -89 -25 -158t-69 -116.5
t-103.5 -72t-130.5 -24.5q-60 0 -116.5 22.5t-100.5 67.5t-69.5 112.5t-25.5 156.5v52h542z" />
    <glyph glyph-name="uni04D9" unicode="&#x4d9;" horiz-adv-x="576" 
d="M282 544q77 0 134 -34.5t87.5 -97t30.5 -146.5t-30.5 -146.5t-86.5 -97t-132 -34.5q-72 0 -127 33.5t-85.5 96.5t-30.5 152v27h382q-4 78 -41.5 117t-101.5 39q-47 0 -77.5 -21.5t-43.5 -59.5l-111 7q22 74 83.5 119.5t149.5 45.5zM424 217h-270q5 -70 41 -104.5
t90 -34.5q57 0 93.5 36t45.5 103z" />
    <glyph glyph-name="uni04E2" unicode="&#x4e2;" horiz-adv-x="741" 
d="M655 0h-108v566l-323 -566h-142v710h108v-579l328 579h137v-710zM218 797v85h278v-85h-278z" />
    <glyph glyph-name="uni04E3" unicode="&#x4e3;" horiz-adv-x="581" 
d="M75 0v532h106v-374l212 374h112v-532h-106v365l-206 -365h-118zM152 619v85h278v-85h-278z" />
    <glyph glyph-name="uni04E8" unicode="&#x4e8;" horiz-adv-x="751" 
d="M95 306v98h566v-98h-566zM375 -16q-103 0 -177 44.5t-114 127.5t-40 198t40 198.5t114 128.5t177 45q104 0 178.5 -45t114 -128.5t39.5 -198.5t-39.5 -198t-114 -127.5t-178.5 -44.5zM375 83q69 0 118.5 32t75.5 92.5t26 146.5t-26 147t-75.5 93.5t-118.5 32.5
q-68 0 -117 -32.5t-75.5 -93.5t-26.5 -147t26.5 -146.5t75.5 -92.5t117 -32z" />
    <glyph glyph-name="uni04E9" unicode="&#x4e9;" horiz-adv-x="591" 
d="M101 223v86h387v-86h-387zM292 -12q-76 0 -133 34t-88.5 97t-31.5 147q0 85 31.5 147t88.5 96.5t133 34.5t132.5 -34.5t88 -96.5t31.5 -147q0 -84 -31.5 -147t-88 -97t-132.5 -34zM292 80q67 0 104.5 49.5t37.5 136.5t-37.5 136.5t-104.5 49.5q-68 0 -105.5 -49.5
t-37.5 -136.5t37.5 -136.5t105.5 -49.5z" />
    <glyph glyph-name="uni04EE" unicode="&#x4ee;" horiz-adv-x="564" 
d="M91 0v97h81q21 0 34 9t20 28l24 62h-37l-193 514h114l150 -418l146 418h114l-223 -622q-16 -45 -47.5 -66.5t-80.5 -21.5h-102zM144 797v85h278v-85h-278z" />
    <glyph glyph-name="uni04EF" unicode="&#x4ef;" horiz-adv-x="553" 
d="M105 -150v87h65q27 0 40 8t20 27l17 44h-33l-192 516h112l146 -418l139 418h113l-212 -594q-16 -46 -47.5 -67t-87.5 -21h-80zM137 619v85h278v-85h-278z" />
    <glyph glyph-name="uni0E3F" unicode="&#xe3f;" horiz-adv-x="661" 
d="M86 0v710h223q128 0 196 -50t68 -147q0 -43 -20 -76t-56.5 -52t-83.5 -20l-1 4q89 -2 140 -46.5t51 -121.5q0 -93 -67 -147t-187 -54h-263zM194 97h155q68 0 106 28.5t38 79.5q0 53 -37.5 81.5t-106.5 28.5h-155v-218zM272 -91v896h76v-896h-76zM194 407h118
q74 0 112.5 26.5t38.5 75.5q0 50 -38.5 77t-112.5 27h-118v-206z" />
    <glyph glyph-name="uni1E20" unicode="&#x1e20;" horiz-adv-x="713" 
d="M365 -16q-101 0 -173 47.5t-110 131t-38 191.5q0 107 38.5 191t111.5 132.5t175 48.5q87 0 147.5 -31t96 -85t49.5 -123l-113 -6q-12 65 -54 105.5t-126 40.5q-74 0 -121 -37t-69.5 -99t-22.5 -137q0 -78 22.5 -139t70 -96.5t121.5 -35.5q58 0 100 25t65.5 68t25.5 95
h-190v91h293v-362h-74l-7 160l14 -12q-11 -48 -45 -85t-82.5 -58t-104.5 -21zM231 797v85h278v-85h-278z" />
    <glyph glyph-name="uni1E21" unicode="&#x1e21;" horiz-adv-x="607" 
d="M289 -162q-63 0 -111 19t-79 53.5t-42 80.5l110 7q11 -33 38.5 -52.5t83.5 -19.5q66 0 101.5 28t35.5 85v77q-19 -41 -61 -65t-94 -24q-67 0 -119 33t-81 91t-29 134q0 77 28.5 135t80 91t116.5 33q57 0 100.5 -26t62.5 -70v84h102v-490q0 -66 -29.5 -111.5t-84 -69
t-129.5 -23.5zM288 117q62 0 99.5 45t38.5 124q1 52 -16 89.5t-48.5 58t-73.5 20.5q-65 0 -100.5 -45.5t-35.5 -122.5q0 -78 36.5 -123.5t99.5 -45.5zM153 619v85h278v-85h-278z" />
    <glyph glyph-name="Wgrave" unicode="&#x1e80;" horiz-adv-x="968" 
d="M226 0l-188 710h115l138 -561l138 561h110l138 -561l137 561h117l-189 -710h-126l-132 518l-132 -518h-126zM448 779l-90 135h111l63 -135h-84z" />
    <glyph glyph-name="wgrave" unicode="&#x1e81;" horiz-adv-x="829" 
d="M184 0l-162 532h111l114 -416l117 416h100l117 -416l115 416h111l-162 -532h-119l-112 380l-112 -380h-118zM379 601l-90 135h111l63 -135h-84z" />
    <glyph glyph-name="Wacute" unicode="&#x1e82;" horiz-adv-x="968" 
d="M226 0l-188 710h115l138 -561l138 561h110l138 -561l137 561h117l-189 -710h-126l-132 518l-132 -518h-126zM437 774l63 134h111l-90 -134h-84z" />
    <glyph glyph-name="wacute" unicode="&#x1e83;" horiz-adv-x="829" 
d="M184 0l-162 532h111l114 -416l117 416h100l117 -416l115 416h111l-162 -532h-119l-112 380l-112 -380h-118zM368 596l63 134h111l-90 -134h-84z" />
    <glyph glyph-name="Wdieresis" unicode="&#x1e84;" horiz-adv-x="968" 
d="M226 0l-188 710h115l138 -561l138 561h110l138 -561l137 561h117l-189 -710h-126l-132 518l-132 -518h-126zM337 786v106h106v-106h-106zM524 786v106h107v-106h-107z" />
    <glyph glyph-name="wdieresis" unicode="&#x1e85;" horiz-adv-x="829" 
d="M184 0l-162 532h111l114 -416l117 416h100l117 -416l115 416h111l-162 -532h-119l-112 380l-112 -380h-118zM268 608v106h106v-106h-106zM455 608v106h107v-106h-107z" />
    <glyph glyph-name="uni1E9E" unicode="&#x1e9e;" horiz-adv-x="708" 
d="M86 0v490q0 104 58 162t162 58h301v-105l-263 -239l20 62q143 0 214.5 -53.5t71.5 -153.5q0 -68 -31.5 -117.5t-89.5 -76.5t-138 -27h-130v99h130q68 0 107.5 32t39.5 89q0 58 -42.5 89.5t-115.5 31.5h-101v87l254 238l8 -55h-235q-55 0 -83.5 -30.5t-28.5 -90.5v-490
h-108z" />
    <glyph glyph-name="uni1EBC" unicode="&#x1ebc;" horiz-adv-x="609" 
d="M86 0v710h462v-99h-354v-207h342v-96h-342v-209h362v-99h-470zM376 785q-20 0 -37 7t-35 21q-15 13 -24.5 18.5t-22.5 5.5q-17 0 -28.5 -12t-13.5 -47h-59q1 61 28.5 93.5t71.5 32.5q24 0 42 -8t36 -22q14 -12 24.5 -17t21.5 -5q18 0 28 12.5t12 48.5h60q-3 -60 -30 -94
t-74 -34z" />
    <glyph glyph-name="uni1EBD" unicode="&#x1ebd;" horiz-adv-x="576" 
d="M294 -12q-78 0 -134.5 34t-87 97t-30.5 147t30.5 146.5t86.5 97t132 34.5q72 0 127 -33.5t85.5 -96.5t30.5 -152v-27h-382q4 -78 41.5 -117t101.5 -39q47 0 78 22t43 59l110 -7q-21 -74 -82.5 -119.5t-149.5 -45.5zM152 315h270q-5 71 -40.5 105t-90.5 34
q-57 0 -93.5 -35.5t-45.5 -103.5zM352 605q-20 0 -37 7t-35 21q-15 13 -24.5 18.5t-22.5 5.5q-17 0 -28.5 -12t-13.5 -47h-59q1 61 28.5 93.5t71.5 32.5q24 0 42 -8t36 -22q14 -12 24.5 -17t21.5 -5q18 0 28 12.5t12 48.5h60q-3 -60 -30 -94t-74 -34z" />
    <glyph glyph-name="Ygrave" unicode="&#x1ef2;" horiz-adv-x="594" 
d="M243 0v285l-249 425h124l179 -317l180 317h124l-250 -425v-285h-108zM261 779l-90 135h111l63 -135h-84z" />
    <glyph glyph-name="ygrave" unicode="&#x1ef3;" horiz-adv-x="553" 
d="M105 -150v87h65q27 0 40 8t20 27l17 44h-33l-192 516h112l146 -418l139 418h113l-212 -594q-16 -46 -47.5 -67t-87.5 -21h-80zM241 601l-90 135h111l63 -135h-84z" />
    <glyph glyph-name="uni1EF8" unicode="&#x1ef8;" horiz-adv-x="594" 
d="M243 0v285l-249 425h124l179 -317l180 317h124l-250 -425v-285h-108zM355 785q-20 0 -37 7t-35 21q-15 13 -24.5 18.5t-22.5 5.5q-17 0 -28.5 -12t-13.5 -47h-59q1 61 28.5 93.5t71.5 32.5q24 0 42 -8t36 -22q14 -12 24.5 -17t21.5 -5q18 0 28 12.5t12 48.5h60
q-3 -60 -30 -94t-74 -34z" />
    <glyph glyph-name="uni1EF9" unicode="&#x1ef9;" horiz-adv-x="553" 
d="M105 -150v87h65q27 0 40 8t20 27l17 44h-33l-192 516h112l146 -418l139 418h113l-212 -594q-16 -46 -47.5 -67t-87.5 -21h-80zM335 607q-20 0 -37 7t-35 21q-15 13 -24.5 18.5t-22.5 5.5q-17 0 -28.5 -12t-13.5 -47h-59q1 61 28.5 93.5t71.5 32.5q24 0 42 -8t36 -22
q14 -12 24.5 -17t21.5 -5q18 0 28 12.5t12 48.5h60q-3 -60 -30 -94t-74 -34z" />
    <glyph glyph-name="endash" unicode="&#x2013;" horiz-adv-x="592" 
d="M42 246v92h509v-92h-509z" />
    <glyph glyph-name="emdash" unicode="&#x2014;" horiz-adv-x="908" 
d="M42 246v92h825v-92h-825z" />
    <glyph glyph-name="quoteleft" unicode="&#x2018;" horiz-adv-x="218" 
d="M168 726l-50 -157h56v-126h-130v111l63 172h61z" />
    <glyph glyph-name="quoteright" unicode="&#x2019;" horiz-adv-x="218" 
d="M49 427l50 157h-55v126h129v-111l-63 -172h-61z" />
    <glyph glyph-name="quotesinglbase" unicode="&#x201a;" horiz-adv-x="213" 
d="M47 -157l50 157h-55v126h129v-111l-63 -172h-61z" />
    <glyph glyph-name="quotedblleft" unicode="&#x201c;" horiz-adv-x="399" 
d="M168 726l-50 -157h56v-126h-130v111l63 172h61zM350 726l-50 -157h55v-126h-129v111l63 172h61z" />
    <glyph glyph-name="quotedblright" unicode="&#x201d;" horiz-adv-x="399" 
d="M231 427l50 157h-55v126h129v-111l-63 -172h-61zM49 427l50 157h-55v126h129v-111l-63 -172h-61z" />
    <glyph glyph-name="quotedblbase" unicode="&#x201e;" horiz-adv-x="395" 
d="M229 -159l50 157h-55v126h129v-111l-63 -172h-61zM47 -159l50 157h-55v126h129v-111l-63 -172h-61z" />
    <glyph glyph-name="dagger" unicode="&#x2020;" horiz-adv-x="585" 
d="M242 0v710h100v-710h-100zM86 443v89h413v-89h-413z" />
    <glyph glyph-name="daggerdbl" unicode="&#x2021;" horiz-adv-x="585" 
d="M242 0v710h100v-710h-100zM86 171v89h413v-89h-413zM86 443v89h413v-89h-413z" />
    <glyph glyph-name="bullet" unicode="&#x2022;" horiz-adv-x="329" 
d="M164 189q-37 0 -64.5 15.5t-42.5 42.5t-15 61q0 35 15 62t42.5 42.5t64.5 15.5q38 0 65.5 -15.5t42.5 -42.5t15 -62q0 -34 -15 -61t-42.5 -42.5t-65.5 -15.5z" />
    <glyph glyph-name="ellipsis" unicode="&#x2026;" horiz-adv-x="612" 
d="M42 0v126h129v-126h-129zM242 0v126h129v-126h-129zM442 0v126h129v-126h-129z" />
    <glyph glyph-name="perthousand" unicode="&#x2030;" horiz-adv-x="1183" 
d="M200 366q-69 0 -113.5 45t-44.5 131q0 87 44.5 131.5t113.5 44.5t113 -44.5t44 -131.5q0 -86 -44 -131t-113 -45zM200 433q38 0 57 28t19 81t-19 81t-57 28q-37 0 -56.5 -28t-19.5 -81t19.5 -81t56.5 -28zM610 -8q-68 0 -113 45t-45 131q0 87 45 131.5t113 44.5
q70 0 114 -44.5t44 -131.5q0 -86 -44 -131t-114 -45zM610 59q38 0 57 28t19 81t-19 81t-57 28q-37 0 -56.5 -28t-19.5 -81t19.5 -81t56.5 -28zM984 -8q-69 0 -113.5 45t-44.5 131q0 87 44.5 131.5t113.5 44.5t113.5 -44.5t44.5 -131.5q0 -86 -44.5 -131t-113.5 -45zM984 59
q38 0 57 28t19 81t-19 81t-57 28q-37 0 -56.5 -28t-19.5 -81t19.5 -81t56.5 -28zM121 0l484 710h84l-484 -710h-84z" />
    <glyph glyph-name="minute" unicode="&#x2032;" horiz-adv-x="226" 
d="M40 480l44 230h102l-54 -230h-92z" />
    <glyph glyph-name="second" unicode="&#x2033;" horiz-adv-x="367" 
d="M40 480l44 230h102l-54 -230h-92zM182 480l44 230h102l-54 -230h-92z" />
    <glyph glyph-name="guilsinglleft" unicode="&#x2039;" horiz-adv-x="348" 
d="M306 76h-124l-140 163v74l140 163h124l-172 -200z" />
    <glyph glyph-name="guilsinglright" unicode="&#x203a;" horiz-adv-x="348" 
d="M42 76l171 200l-171 200h124l140 -163v-74l-140 -163h-124z" />
    <glyph glyph-name="fraction" unicode="&#x2044;" horiz-adv-x="168" 
d="M-200 0l484 710h84l-484 -710h-84z" />
    <glyph glyph-name="uni2070" unicode="&#x2070;" horiz-adv-x="404" 
d="M202 315q-74 0 -118 54t-44 148t43.5 147.5t118.5 53.5q74 0 118 -53.5t44 -147.5t-44 -148t-118 -54zM202 381q42 0 63.5 34t21.5 102q0 66 -22 100.5t-63 34.5q-42 0 -63.5 -33t-21.5 -102q0 -62 23 -99t62 -37zM148 377l-32 51l140 231l32 -50z" />
    <glyph glyph-name="uni2074" unicode="&#x2074;" horiz-adv-x="340" 
d="M191 323v85h-181v58l180 244h78v-237h52v-65h-52v-85h-77zM88 473h103v134z" />
    <glyph glyph-name="uni2075" unicode="&#x2075;" horiz-adv-x="357" 
d="M180 315q-63 0 -99 27.5t-41 76.5l75 4q5 -22 21.5 -33t44.5 -11q34 0 52.5 18.5t18.5 52.5q0 30 -16 50.5t-48 20.5q-26 0 -42.5 -10t-27.5 -27h-71l29 226h226v-64h-163l-10 -92q11 13 30 19.5t44 6.5q63 0 93.5 -37t30.5 -93q0 -63 -39 -99t-108 -36z" />
    <glyph glyph-name="uni2076" unicode="&#x2076;" horiz-adv-x="381" 
d="M190 315q-68 0 -109 46t-41 136q0 62 16.5 112t53 79.5t93.5 29.5q61 0 92 -24.5t42 -72.5l-71 -7q-5 21 -20.5 31t-43.5 10q-37 0 -60 -28t-26 -79q11 17 33 28t53 11q61 0 99.5 -33.5t38.5 -101.5q0 -65 -42 -101t-108 -36zM191 379q36 0 56 20.5t20 54.5t-19 53
t-56 19q-21 0 -38 -8.5t-26.5 -24.5t-10.5 -39q-1 -34 19.5 -54.5t54.5 -20.5z" />
    <glyph glyph-name="uni2077" unicode="&#x2077;" horiz-adv-x="305" 
d="M88 322q0 59 13.5 115t39 108t61.5 99h-182v66h265v-54q-39 -49 -66 -100t-41 -108.5t-14 -125.5h-76z" />
    <glyph glyph-name="uni2078" unicode="&#x2078;" horiz-adv-x="362" 
d="M181 315q-76 0 -113.5 30t-37.5 82q0 36 21.5 63.5t60.5 41.5q-30 10 -47 29.5t-17 56.5q0 47 33 73.5t100 26.5t100 -26.5t33 -73.5q0 -37 -17 -56.5t-47 -29.5q38 -15 60 -42t22 -63q0 -52 -37.5 -82t-113.5 -30zM181 379q36 0 55 13.5t19 41.5q0 27 -19 45.5t-55 18.5
q-35 0 -54.5 -18.5t-19.5 -45.5q0 -28 19.5 -41.5t54.5 -13.5zM181 559q27 0 42 12.5t15 37.5q0 22 -14.5 33.5t-42.5 11.5t-42.5 -11.5t-14.5 -33.5q0 -25 15 -37.5t42 -12.5z" />
    <glyph glyph-name="uni2079" unicode="&#x2079;" horiz-adv-x="381" 
d="M191 718q69 0 109.5 -46t40.5 -136q0 -62 -17 -112t-53 -79.5t-94 -29.5q-60 0 -91.5 24.5t-41.5 72.5l71 7q5 -20 20.5 -30.5t42.5 -10.5q38 0 61 28t26 79q-10 -16 -32.5 -27.5t-54.5 -11.5q-60 0 -98.5 33.5t-38.5 101.5q0 65 42 101t108 36zM190 654
q-37 0 -56.5 -20.5t-19.5 -54.5t19 -53t56 -19q22 0 38.5 8.5t26.5 24.5t10 39q1 34 -19 54.5t-55 20.5z" />
    <glyph glyph-name="uni2080" unicode="&#x2080;" horiz-adv-x="404" 
d="M202 -108q-74 0 -118 54t-44 148t43.5 147.5t118.5 53.5q74 0 118 -53.5t44 -147.5t-44 -148t-118 -54zM202 -42q42 0 63.5 34t21.5 102q0 66 -22 100.5t-63 34.5q-42 0 -63.5 -33t-21.5 -102q0 -62 23 -99t62 -37zM148 -46l-32 51l140 231l32 -50z" />
    <glyph glyph-name="uni2081" unicode="&#x2081;" horiz-adv-x="255" 
d="M118 -100v244l-98 -1v58h25q45 0 68 23t23 64h59v-388h-77z" />
    <glyph glyph-name="uni2082" unicode="&#x2082;" horiz-adv-x="356" 
d="M41 -100q0 46 7 78.5t29 58t65 48.5l51 27q18 10 28.5 19t15 20.5t4.5 28.5q0 24 -16 37.5t-40 13.5q-33 0 -50 -16t-22 -50l-72 3q6 59 42.5 93t100.5 34q63 0 97 -31.5t34 -82.5q0 -47 -25 -75t-69 -50l-43 -22q-29 -15 -41 -33t-12 -35h189v-66h-273z" />
    <glyph glyph-name="uni2083" unicode="&#x2083;" horiz-adv-x="344" 
d="M167 -108q-54 0 -85.5 13.5t-45.5 39t-16 58.5l75 3q2 -22 18.5 -36t53.5 -14q34 0 52.5 15t18.5 42q0 26 -18 42t-57 16h-27v61h27q26 0 42 12.5t16 35.5q0 22 -14 36t-45 14q-28 0 -44 -13.5t-18 -33.5l-75 5q6 47 40 77t97 30q69 0 101.5 -29.5t32.5 -75.5
q0 -35 -17.5 -55t-51.5 -29q49 -11 68 -36.5t19 -59.5q0 -54 -40 -86t-107 -32z" />
    <glyph glyph-name="uni2084" unicode="&#x2084;" horiz-adv-x="340" 
d="M191 -100v85h-181v58l180 244h78v-237h52v-65h-52v-85h-77zM88 50h103v134z" />
    <glyph glyph-name="uni2085" unicode="&#x2085;" horiz-adv-x="357" 
d="M180 -108q-63 0 -99 27.5t-41 76.5l75 4q5 -22 21.5 -33t44.5 -11q34 0 52.5 18.5t18.5 52.5q0 30 -16 50.5t-48 20.5q-26 0 -42.5 -10t-27.5 -27h-71l29 226h226v-64h-163l-10 -92q11 13 30 19.5t44 6.5q63 0 93.5 -37t30.5 -93q0 -63 -39 -99t-108 -36z" />
    <glyph glyph-name="uni2086" unicode="&#x2086;" horiz-adv-x="381" 
d="M190 -108q-68 0 -109 46t-41 136q0 62 16.5 112t53 79.5t93.5 29.5q61 0 92 -24.5t42 -72.5l-71 -7q-5 21 -20.5 31t-43.5 10q-37 0 -60 -28t-26 -79q11 17 33 28t53 11q61 0 99.5 -33.5t38.5 -101.5q0 -65 -42 -101t-108 -36zM191 -44q36 0 56 20.5t20 54.5t-19 53
t-56 19q-21 0 -38 -8.5t-26.5 -24.5t-10.5 -39q-1 -34 19.5 -54.5t54.5 -20.5z" />
    <glyph glyph-name="uni2087" unicode="&#x2087;" horiz-adv-x="305" 
d="M88 -100q0 59 13.5 115t39 108t61.5 99h-182v66h265v-54q-39 -49 -66 -100t-41 -108.5t-14 -125.5h-76z" />
    <glyph glyph-name="uni2088" unicode="&#x2088;" horiz-adv-x="362" 
d="M181 -108q-76 0 -113.5 30t-37.5 82q0 36 21.5 63.5t60.5 41.5q-30 10 -47 29.5t-17 56.5q0 47 33 73.5t100 26.5t100 -26.5t33 -73.5q0 -37 -17 -56.5t-47 -29.5q38 -15 60 -42t22 -63q0 -52 -37.5 -82t-113.5 -30zM181 -44q36 0 55 13.5t19 41.5q0 27 -19 45.5
t-55 18.5q-35 0 -54.5 -18.5t-19.5 -45.5q0 -28 19.5 -41.5t54.5 -13.5zM181 136q27 0 42 12.5t15 37.5q0 22 -14.5 33.5t-42.5 11.5t-42.5 -11.5t-14.5 -33.5q0 -25 15 -37.5t42 -12.5z" />
    <glyph glyph-name="uni2089" unicode="&#x2089;" horiz-adv-x="381" 
d="M191 295q69 0 109.5 -46t40.5 -136q0 -62 -17 -112t-53 -79.5t-94 -29.5q-60 0 -91.5 24.5t-41.5 72.5l71 7q5 -20 20.5 -30.5t42.5 -10.5q38 0 61 28t26 79q-10 -16 -32.5 -27.5t-54.5 -11.5q-60 0 -98.5 33.5t-38.5 101.5q0 65 42 101t108 36zM190 231
q-37 0 -56.5 -20.5t-19.5 -54.5t19 -53t56 -19q22 0 38.5 8.5t26.5 24.5t10 39q1 34 -19 54.5t-55 20.5z" />
    <glyph glyph-name="uni20AA" unicode="&#x20aa;" horiz-adv-x="804" 
d="M265 0v551h97v-464h196q29 0 45 17t16 45v561h99v-560q0 -69 -40.5 -109.5t-109.5 -40.5h-303zM86 0v710h303q69 0 109 -40.5t40 -109.5v-401h-96v402q0 29 -16 45.5t-45 16.5h-196v-623h-99z" />
    <glyph glyph-name="Euro" unicode="&#x20ac;" horiz-adv-x="740" 
d="M434 -16q-66 0 -121.5 27.5t-95.5 77t-62 117t-22 148.5t21.5 149t62 118t96 77.5t121.5 27.5t119.5 -29.5t90 -81.5t52.5 -120l-113 -7q-15 63 -55 101t-95 38q-61 0 -103 -35.5t-63.5 -97t-21.5 -140.5q0 -78 21.5 -139.5t63.5 -96.5t103 -35q59 0 99.5 43t53.5 110
l115 -6q-13 -72 -49.5 -128t-91.5 -87t-126 -31zM54 235v76h405l-11 -76h-394zM54 388v76h425l-11 -76h-414z" />
    <glyph glyph-name="uni20B4" unicode="&#x20b4;" horiz-adv-x="686" 
d="M54 387v76h400q13 13 18.5 27.5t5.5 31.5q0 46 -31.5 76t-92.5 30q-52 0 -85 -27.5t-55 -78.5l-115 11q24 89 88 141t162 52q75 0 128.5 -25t82.5 -70t29 -107q0 -18 -5 -34t-12 -27h60v-76h-578zM337 -12q-71 0 -124 23t-82 65.5t-29 99.5q0 19 3.5 34t8.5 25h-60v76
h578v-76h-402q-7 -11 -11.5 -24t-4.5 -28q0 -41 33 -69t86 -28q51 0 90.5 25t57.5 67l122 -8q-24 -84 -95 -133t-171 -49z" />
    <glyph glyph-name="uni20B9" unicode="&#x20b9;" horiz-adv-x="690" 
d="M374 0l-288 267v95h205q51 0 84 14t50 42.5t17 69.5q0 42 -17 69.5t-50 41t-84 13.5h-205v92h208q73 0 131.5 -25t93 -72.5t34.5 -116.5t-31.5 -119.5t-89 -76.5t-138.5 -26h-68l294 -268h-146zM86 447v78h546v-78h-546zM86 632v78h546v-78h-546z" />
    <glyph glyph-name="uni20BD" unicode="&#x20bd;" horiz-adv-x="721" 
d="M40 114v78h389v-78h-389zM150 0v710h265q122 0 190 -58.5t68 -162.5q0 -69 -31 -119.5t-88.5 -77t-138.5 -26.5h-157v-266h-108zM258 364h154q73 0 111 31.5t38 93.5q0 61 -38 91.5t-111 30.5h-154v-247z" />
    <glyph glyph-name="uni2107" unicode="&#x2107;" horiz-adv-x="594" 
d="M297 -16q-77 0 -135.5 27t-90.5 75t-32 110q0 52 21.5 92t64 66.5t103.5 36.5l1 -17q-54 9 -91 30.5t-56 56t-19 79.5q0 55 29.5 97t82.5 65.5t122 23.5q45 0 89 -12.5t82.5 -35t65.5 -51.5l-64 -78q-31 38 -78.5 62.5t-92.5 24.5q-42 0 -72 -12.5t-46.5 -34.5t-16.5 -53
q0 -42 20.5 -68t52 -37.5t62.5 -11.5l51 1v-88l-51 1q-48 1 -84 -15t-55.5 -45t-19.5 -69q0 -38 19.5 -67.5t55.5 -46t84 -16.5q33 0 69 12t69.5 34t57.5 51l61 -80q-26 -31 -67.5 -55t-91.5 -38t-100 -14z" />
    <glyph glyph-name="uni2116" unicode="&#x2116;" horiz-adv-x="1159" 
d="M755 0v83h289v-83h-289zM86 0v710h137l328 -579v579h108v-710h-142l-323 566v-566h-108zM899 168q-80 0 -127 47.5t-47 127.5t47 127.5t127 47.5t127 -48t47 -127q0 -80 -47 -127.5t-127 -47.5zM899 238q39 0 59 27.5t20 77.5q0 49 -20 77t-59 28t-59 -28.5t-20 -76.5
q0 -49 20 -77t59 -28z" />
    <glyph glyph-name="uni2117" unicode="&#x2117;" horiz-adv-x="640" 
d="M320 173q-57 0 -107.5 21.5t-88 59.5t-59 88t-21.5 108t21.5 108t59 87.5t88 59t107.5 21.5q58 0 107.5 -21.5t87.5 -59t59.5 -87.5t21.5 -108t-21.5 -108t-59.5 -88t-87.5 -59.5t-107.5 -21.5zM320 232q63 0 111.5 30t76 79.5t27.5 108.5t-27.5 108t-76 78.5
t-111.5 29.5t-111.5 -29.5t-76.5 -78.5t-28 -108t28 -108.5t76.5 -79.5t111.5 -30zM225 300v299h106q59 0 91 -25t32 -68q0 -45 -32 -68.5t-91 -23.5h-43v-114h-63zM288 465h46q27 0 42 11t15 31q0 19 -15 29t-42 10h-46v-81z" />
    <glyph glyph-name="trademark" unicode="&#x2122;" horiz-adv-x="899" 
d="M577 359l-130 351h64l120 -320h-30l121 320h61l-128 -351h-78zM194 359v350h72v-350h-72zM86 644v66h287v-66h-287zM419 359v351h69v-351h-69zM744 359v351h69v-351h-69z" />
    <glyph glyph-name="uni2153" unicode="&#x2153;" horiz-adv-x="804" 
d="M118 323v244l-98 -1v58h25q45 0 68 23t23 64h59v-388h-77zM91 0l484 710h84l-484 -710h-84zM626 -8q-54 0 -85.5 13.5t-45.5 39t-16 58.5l75 3q2 -22 18.5 -36t53.5 -14q34 0 52.5 15t18.5 42q0 26 -18 42t-57 16h-27v61h27q26 0 42 12.5t16 35.5q0 22 -14 36t-45 14
q-28 0 -44 -13.5t-18 -33.5l-75 5q6 47 40 77t97 30q69 0 101.5 -29.5t32.5 -75.5q0 -35 -17.5 -55t-51.5 -29q49 -11 68 -36.5t19 -59.5q0 -54 -40 -86t-107 -32z" />
    <glyph glyph-name="uni2154" unicode="&#x2154;" horiz-adv-x="868" 
d="M41 323q0 46 7 78.5t29 58t65 48.5l51 27q18 10 28.5 19t15 20.5t4.5 28.5q0 24 -16 37.5t-40 13.5q-33 0 -50 -16t-22 -50l-72 3q6 59 42.5 93t100.5 34q63 0 97 -31.5t34 -82.5q0 -47 -25 -75t-69 -50l-43 -22q-29 -15 -41 -33t-12 -35h189v-66h-273zM156 0l484 710h84
l-484 -710h-84zM691 -8q-54 0 -85.5 13.5t-45.5 39t-16 58.5l75 3q2 -22 18.5 -36t53.5 -14q34 0 52.5 15t18.5 42q0 26 -18 42t-57 16h-27v61h27q26 0 42 12.5t16 35.5q0 22 -14 36t-45 14q-28 0 -44 -13.5t-18 -33.5l-75 5q6 47 40 77t97 30q69 0 101.5 -29.5t32.5 -75.5
q0 -35 -17.5 -55t-51.5 -29q49 -11 68 -36.5t19 -59.5q0 -54 -40 -86t-107 -32z" />
    <glyph glyph-name="uni2155" unicode="&#x2155;" horiz-adv-x="816" 
d="M118 323v244l-98 -1v58h25q45 0 68 23t23 64h59v-388h-77zM91 0l484 710h84l-484 -710h-84zM639 -8q-63 0 -99 27.5t-41 76.5l75 4q5 -22 21.5 -33t44.5 -11q34 0 52.5 18.5t18.5 52.5q0 30 -16 50.5t-48 20.5q-26 0 -42.5 -10t-27.5 -27h-71l29 226h226v-64h-163
l-10 -92q11 13 30 19.5t44 6.5q63 0 93.5 -37t30.5 -93q0 -63 -39 -99t-108 -36z" />
    <glyph glyph-name="oneeighth" unicode="&#x215b;" horiz-adv-x="821" 
d="M118 323v244l-98 -1v58h25q45 0 68 23t23 64h59v-388h-77zM91 0l484 710h84l-484 -710h-84zM640 -8q-76 0 -113.5 30t-37.5 82q0 36 21.5 63.5t60.5 41.5q-30 10 -47 29.5t-17 56.5q0 47 33 73.5t100 26.5t100 -26.5t33 -73.5q0 -37 -17 -56.5t-47 -29.5q38 -15 60 -42
t22 -63q0 -52 -37.5 -82t-113.5 -30zM640 56q36 0 55 13.5t19 41.5q0 27 -19 45.5t-55 18.5q-35 0 -54.5 -18.5t-19.5 -45.5q0 -28 19.5 -41.5t54.5 -13.5zM640 236q27 0 42 12.5t15 37.5q0 22 -14.5 33.5t-42.5 11.5t-42.5 -11.5t-14.5 -33.5q0 -25 15 -37.5t42 -12.5z" />
    <glyph glyph-name="threeeighths" unicode="&#x215c;" horiz-adv-x="874" 
d="M167 315q-54 0 -85.5 13.5t-45.5 39t-16 58.5l75 3q2 -22 18.5 -36t53.5 -14q34 0 52.5 15t18.5 42q0 26 -18 42t-57 16h-27v61h27q26 0 42 12.5t16 35.5q0 22 -14 36t-45 14q-28 0 -44 -13.5t-18 -33.5l-75 5q6 47 40 77t97 30q69 0 101.5 -29.5t32.5 -75.5
q0 -35 -17.5 -55t-51.5 -29q49 -11 68 -36.5t19 -59.5q0 -54 -40 -86t-107 -32zM144 0l484 710h84l-484 -710h-84zM693 -8q-76 0 -113.5 30t-37.5 82q0 36 21.5 63.5t60.5 41.5q-30 10 -47 29.5t-17 56.5q0 47 33 73.5t100 26.5t100 -26.5t33 -73.5q0 -37 -17 -56.5
t-47 -29.5q38 -15 60 -42t22 -63q0 -52 -37.5 -82t-113.5 -30zM693 56q36 0 55 13.5t19 41.5q0 27 -19 45.5t-55 18.5q-35 0 -54.5 -18.5t-19.5 -45.5q0 -28 19.5 -41.5t54.5 -13.5zM693 236q27 0 42 12.5t15 37.5q0 22 -14.5 33.5t-42.5 11.5t-42.5 -11.5t-14.5 -33.5
q0 -25 15 -37.5t42 -12.5z" />
    <glyph glyph-name="fiveeighths" unicode="&#x215d;" horiz-adv-x="887" 
d="M180 315q-63 0 -99 27.5t-41 76.5l75 4q5 -22 21.5 -33t44.5 -11q34 0 52.5 18.5t18.5 52.5q0 30 -16 50.5t-48 20.5q-26 0 -42.5 -10t-27.5 -27h-71l29 226h226v-64h-163l-10 -92q11 13 30 19.5t44 6.5q63 0 93.5 -37t30.5 -93q0 -63 -39 -99t-108 -36zM157 0l484 710
h84l-484 -710h-84zM706 -8q-76 0 -113.5 30t-37.5 82q0 36 21.5 63.5t60.5 41.5q-30 10 -47 29.5t-17 56.5q0 47 33 73.5t100 26.5t100 -26.5t33 -73.5q0 -37 -17 -56.5t-47 -29.5q38 -15 60 -42t22 -63q0 -52 -37.5 -82t-113.5 -30zM706 56q36 0 55 13.5t19 41.5
q0 27 -19 45.5t-55 18.5q-35 0 -54.5 -18.5t-19.5 -45.5q0 -28 19.5 -41.5t54.5 -13.5zM706 236q27 0 42 12.5t15 37.5q0 22 -14.5 33.5t-42.5 11.5t-42.5 -11.5t-14.5 -33.5q0 -25 15 -37.5t42 -12.5z" />
    <glyph glyph-name="seveneighths" unicode="&#x215e;" horiz-adv-x="805" 
d="M88 322q0 59 13.5 115t39 108t61.5 99h-182v66h265v-54q-39 -49 -66 -100t-41 -108.5t-14 -125.5h-76zM75 0l484 710h84l-484 -710h-84zM624 -8q-76 0 -113.5 30t-37.5 82q0 36 21.5 63.5t60.5 41.5q-30 10 -47 29.5t-17 56.5q0 47 33 73.5t100 26.5t100 -26.5t33 -73.5
q0 -37 -17 -56.5t-47 -29.5q38 -15 60 -42t22 -63q0 -52 -37.5 -82t-113.5 -30zM624 56q36 0 55 13.5t19 41.5q0 27 -19 45.5t-55 18.5q-35 0 -54.5 -18.5t-19.5 -45.5q0 -28 19.5 -41.5t54.5 -13.5zM624 236q27 0 42 12.5t15 37.5q0 22 -14.5 33.5t-42.5 11.5t-42.5 -11.5
t-14.5 -33.5q0 -25 15 -37.5t42 -12.5z" />
    <glyph glyph-name="arrowleft" unicode="&#x2190;" horiz-adv-x="798" 
d="M480 45h-125l-311 311l310 311h125l-310 -310zM754 408v-104h-649v104h649z" />
    <glyph glyph-name="arrowup" unicode="&#x2191;" horiz-adv-x="710" 
d="M666 274l-312 311l-310 -310v125l311 310l311 -311v-125zM303 0v649h104v-649h-104z" />
    <glyph glyph-name="arrowright" unicode="&#x2192;" horiz-adv-x="798" 
d="M318 45l311 312l-310 310h125l310 -311l-311 -311h-125zM44 408h649v-104h-649v104z" />
    <glyph glyph-name="arrowdown" unicode="&#x2193;" horiz-adv-x="710" 
d="M666 436v-125l-311 -311l-311 310v125l310 -310zM303 710h104v-649h-104v649z" />
    <glyph glyph-name="arrowboth" unicode="&#x2194;" horiz-adv-x="1051" 
d="M571 45l311 312l-310 310h125l310 -311l-311 -311h-125zM297 408h650v-104h-650v104zM480 45h-125l-311 311l310 311h125l-310 -310zM754 408v-104h-649v104h649z" />
    <glyph glyph-name="arrowupdn" unicode="&#x2195;" horiz-adv-x="710" 
d="M44 264l312 -311l310 310v-125l-311 -310l-311 311v125zM407 538v-650h-104v650h104zM44 355v125l311 311l311 -310v-125l-310 310zM407 81h-104v650h104v-650z" />
    <glyph glyph-name="uni2196" unicode="&#x2196;" horiz-adv-x="626" 
d="M133 185l-89 88v440l439 1l89 -88h-439v-441zM582 247l-73 -73l-458 459l73 73z" />
    <glyph glyph-name="uni2197" unicode="&#x2197;" horiz-adv-x="626" 
d="M494 185v441h-439l88 88l439 -1v-440zM44 247l459 459l73 -73l-459 -459z" />
    <glyph glyph-name="uni2198" unicode="&#x2198;" horiz-adv-x="628" 
d="M55 92h441v439l88 -88l-1 -439h-440zM117 542l459 -459l-73 -73l-459 459z" />
    <glyph glyph-name="uni2199" unicode="&#x2199;" horiz-adv-x="628" 
d="M573 92l-88 -88h-440l-1 439l88 88v-439h441zM511 542l73 -73l-460 -459l-73 73z" />
    <glyph glyph-name="uni219D" unicode="&#x219d;" horiz-adv-x="650" 
d="M371 171q-21 0 -45.5 9.5t-43.5 33t-28 64.5q-7 46 -17 68.5t-37 22.5q-19 0 -37 -17t-29 -48h-90q8 44 32.5 78t58.5 53.5t69 19.5q46 0 76.5 -31t38.5 -86q5 -36 17 -58.5t36 -22.5q19 0 38.5 18.5t38.5 51.5l76 -44q-31 -53 -71 -82.5t-83 -29.5zM606 227l-241 141
l219 102z" />
    <glyph glyph-name="uni21A9" unicode="&#x21a9;" horiz-adv-x="657" 
d="M388 241h-286v88h286q38 0 69 17t49 45.5t18 63.5q0 36 -18 64.5t-49 45.5t-69 17h-295v88h295q63 0 113.5 -28.5t81 -77.5t30.5 -109t-30.5 -109t-81 -77t-113.5 -28zM328 117h-116l-168 168l166 167h117l-167 -166z" />
    <glyph glyph-name="uni21AA" unicode="&#x21aa;" horiz-adv-x="657" 
d="M268 241q-62 0 -113 28t-81 77t-30 109t30 109t81 77.5t113 28.5h295v-88h-294q-38 0 -69 -17t-49 -45.5t-18 -64.5q0 -35 18 -63.5t49 -45.5t69 -17h286v-88h-287zM329 117l168 169l-167 166h117l166 -167l-168 -168h-116z" />
    <glyph glyph-name="uni21B0" unicode="&#x21b0;" horiz-adv-x="662" 
d="M526 0v399h-398v92h490v-491h-92zM250 274l-206 171l205 171z" />
    <glyph glyph-name="uni21B1" unicode="&#x21b1;" horiz-adv-x="662" 
d="M136 0h-92v491h490v-92h-398v-399zM412 274l1 342l205 -171z" />
    <glyph glyph-name="uni21B3" unicode="&#x21b3;" horiz-adv-x="662" 
d="M136 710v-399h398v-92h-490v491h92zM412 436l206 -171l-205 -171z" />
    <glyph glyph-name="uni21B4" unicode="&#x21b4;" horiz-adv-x="665" 
d="M410 81v540h-366v88h454v-628h-88zM454 0l-167 201l334 -1z" />
    <glyph glyph-name="carriagereturn" unicode="&#x21b5;" horiz-adv-x="662" 
d="M526 710h92v-491h-490v92h398v399zM250 436l-1 -342l-205 171z" />
    <glyph glyph-name="uni21E4" unicode="&#x21e4;" horiz-adv-x="669" 
d="M360 186l-200 167l199 167zM44 158v390h81v-390h-81zM243 309v88h382v-88h-382z" />
    <glyph glyph-name="uni21E5" unicode="&#x21e5;" horiz-adv-x="669" 
d="M309 186l1 334l199 -167zM625 158h-81v390h81v-390zM426 309h-382v88h382v-88z" />
    <glyph glyph-name="uni21E7" unicode="&#x21e7;" horiz-adv-x="825" 
d="M234 0v334h-214l393 391l392 -391h-212v-334h-359zM322 88h182v328h101l-192 192l-192 -192h101v-328z" />
    <glyph glyph-name="partialdiff" unicode="&#x2202;" horiz-adv-x="540" 
d="M414 252q0 87 -15.5 152t-51.5 111t-96.5 75.5t-150.5 45.5l22 89q109 -17 181.5 -57t114.5 -98t60 -133.5t18 -164.5zM261 -11q-68 0 -117 29.5t-75.5 83.5t-26.5 126q0 73 27 126t75.5 83t113.5 30q44 0 80.5 -16.5t65.5 -41t50 -51.5t31.5 -50.5t10.5 -35.5
q0 -90 -30 -153.5t-83 -96.5t-122 -33zM261 71q41 0 71 17t47 57t17 109q0 42 -15 71.5t-43.5 44.5t-68.5 15q-61 0 -94 -41.5t-33 -115.5t29 -115.5t90 -41.5z" />
    <glyph glyph-name="uni2206" unicode="&#x2206;" horiz-adv-x="650" 
d="M20 0v93l245 617h121l244 -617v-93h-610zM116 93h419l-209 529z" />
    <glyph glyph-name="product" unicode="&#x220f;" horiz-adv-x="620" 
d="M123 -150v766h-111v94h597v-94h-108v-766h-101v766h-176v-766h-101z" />
    <glyph glyph-name="summation" unicode="&#x2211;" horiz-adv-x="536" 
d="M28 0v99l172 256l-172 256v99h481v-99h-369l175 -256l-175 -256h369v-99h-481z" />
    <glyph glyph-name="minus" unicode="&#x2212;" horiz-adv-x="528" 
d="M40 246v92h448v-92h-448z" />
    <glyph glyph-name="radical" unicode="&#x221a;" horiz-adv-x="684" 
d="M190 -150l179 860h101l-182 -860h-98zM153 -150l-131 490h100l129 -490h-98zM375 620v90h287v-90h-287z" />
    <glyph glyph-name="infinity" unicode="&#x221e;" horiz-adv-x="832" 
d="M215 92q-49 0 -89 21.5t-63 62t-23 95.5q0 54 23 94t63 62.5t89 22.5q63 0 114 -30.5t88 -87.5q40 60 86 89t114 29q51 0 90.5 -24t62 -64.5t22.5 -90.5q0 -49 -21 -90t-59.5 -65t-93.5 -24q-61 0 -109.5 25.5t-91.5 92.5q-36 -58 -88 -88t-114 -30zM230 178
q40 0 78.5 24t65.5 69q-28 44 -65.5 68.5t-78.5 24.5t-65.5 -27.5t-24.5 -65.5q0 -44 24.5 -68.5t65.5 -24.5zM604 178q41 1 64.5 28t23.5 65t-23.5 64.5t-64.5 27.5t-78.5 -23.5t-68.5 -70.5q20 -28 43.5 -49t50 -31.5t53.5 -10.5z" />
    <glyph glyph-name="integral" unicode="&#x222b;" horiz-adv-x="403" 
d="M64 -150h-60l9 90h47q26 0 40.5 11.5t18.5 43.5l64 578q8 67 47.5 102t107.5 35h60l-9 -90h-43q-28 0 -43.5 -14.5t-18.5 -40.5l-65 -578q-7 -67 -45.5 -102t-109.5 -35z" />
    <glyph glyph-name="approxequal" unicode="&#x2248;" horiz-adv-x="523" 
d="M349 127q-33 0 -55 12.5t-50 45.5q-18 23 -29 33.5t-19 13t-18 2.5q-24 0 -37 -24.5t-13 -73.5h-88q0 82 36.5 132.5t96.5 50.5q36 0 58.5 -14t47.5 -45t37.5 -39.5t29.5 -8.5q24 0 36.5 25t12.5 73h88q0 -82 -36.5 -132.5t-97.5 -50.5zM349 347q-33 0 -55 12.5t-50 45.5
q-18 23 -29 33.5t-19 13t-18 2.5q-24 0 -37 -24.5t-13 -73.5h-88q0 82 36.5 132.5t96.5 50.5q36 0 58.5 -14t47.5 -45t37.5 -39.5t29.5 -8.5q24 0 36.5 25t12.5 73h88q0 -82 -36.5 -132.5t-97.5 -50.5z" />
    <glyph glyph-name="notequal" unicode="&#x2260;" horiz-adv-x="544" 
d="M151 32l156 530h86l-156 -530h-86zM40 358v92h464v-92h-464zM40 144v92h464v-92h-464z" />
    <glyph glyph-name="lessequal" unicode="&#x2264;" horiz-adv-x="548" 
d="M498 0h-458v85h458v-85zM498 119l-456 158v123l456 158v-98l-398 -130v17l398 -131v-97z" />
    <glyph glyph-name="greaterequal" unicode="&#x2265;" horiz-adv-x="548" 
d="M50 0v85h458v-85h-458zM50 119v97l398 131v-17l-398 130v98l456 -158v-123z" />
    <glyph glyph-name="uni23CE" unicode="&#x23ce;" horiz-adv-x="866" 
d="M422 -77l-378 379l378 378v-223h91v253h309v-563h-400v-224zM338 125v110h397v388h-135v-254h-262v109l-176 -176z" />
    <glyph glyph-name="uni240B" unicode="&#x240b;" horiz-adv-x="600" 
d="M152 300l-101 330h56l90 -304h-33l89 304h56l-101 -330h-56zM401 71v278h-94v52h241v-52h-94v-278h-53z" />
    <glyph glyph-name="uni240C" unicode="&#x240c;" horiz-adv-x="600" 
d="M330 71v330h206v-52h-184l33 33v-151l-33 27h175v-52h-175l33 28v-163h-55zM78 300v330h205v-52h-184l34 33v-151l-34 27h175v-52h-175l34 28v-163h-55z" />
    <glyph glyph-name="uni2460" unicode="&#x2460;" horiz-adv-x="832" 
d="M415 -17q-77 0 -144.5 29t-119.5 80.5t-80.5 119.5t-28.5 146q0 77 28.5 144.5t80.5 119t119.5 80.5t144.5 29q78 0 146 -29t119.5 -80.5t81 -119t29.5 -144.5q0 -78 -29.5 -146t-81 -119.5t-119.5 -80.5t-146 -29zM415 61q62 0 116.5 22.5t95 63.5t63 95t22.5 116
t-22.5 115.5t-63 94t-95 63t-116.5 22.5t-116 -22.5t-94 -63t-63 -94t-23 -115.5t23 -116t63 -95t94 -63.5t116 -22.5zM396 160v244l-98 -1v58h25q45 0 68 23t23 64h59v-388h-77z" />
    <glyph glyph-name="uni2461" unicode="&#x2461;" horiz-adv-x="832" 
d="M415 -17q-77 0 -144.5 29t-119.5 80.5t-80.5 119.5t-28.5 146q0 77 28.5 144.5t80.5 119t119.5 80.5t144.5 29q78 0 146 -29t119.5 -80.5t81 -119t29.5 -144.5q0 -78 -29.5 -146t-81 -119.5t-119.5 -80.5t-146 -29zM415 61q62 0 116.5 22.5t95 63.5t63 95t22.5 116
t-22.5 115.5t-63 94t-95 63t-116.5 22.5t-116 -22.5t-94 -63t-63 -94t-23 -115.5t23 -116t63 -95t94 -63.5t116 -22.5zM281 160q0 46 7 78.5t29 58t65 48.5l51 27q18 10 28.5 19t15 20.5t4.5 28.5q0 24 -16 37.5t-40 13.5q-33 0 -50 -16t-22 -50l-72 3q6 59 42.5 93
t100.5 34q63 0 97 -31.5t34 -82.5q0 -47 -25 -75t-69 -50l-43 -22q-29 -15 -41 -33t-12 -35h189v-66h-273z" />
    <glyph glyph-name="uni2462" unicode="&#x2462;" horiz-adv-x="832" 
d="M415 -17q-77 0 -144.5 29t-119.5 80.5t-80.5 119.5t-28.5 146q0 77 28.5 144.5t80.5 119t119.5 80.5t144.5 29q78 0 146 -29t119.5 -80.5t81 -119t29.5 -144.5q0 -78 -29.5 -146t-81 -119.5t-119.5 -80.5t-146 -29zM415 61q62 0 116.5 22.5t95 63.5t63 95t22.5 116
t-22.5 115.5t-63 94t-95 63t-116.5 22.5t-116 -22.5t-94 -63t-63 -94t-23 -115.5t23 -116t63 -95t94 -63.5t116 -22.5zM418 152q-54 0 -85.5 13.5t-45.5 39t-16 58.5l75 3q2 -22 18.5 -36t53.5 -14q34 0 52.5 15t18.5 42q0 26 -18 42t-57 16h-27v61h27q26 0 42 12.5t16 35.5
q0 22 -14 36t-45 14q-28 0 -44 -13.5t-18 -33.5l-75 5q6 47 40 77t97 30q69 0 101.5 -29.5t32.5 -75.5q0 -35 -17.5 -55t-51.5 -29q49 -11 68 -36.5t19 -59.5q0 -54 -40 -86t-107 -32z" />
    <glyph glyph-name="uni2463" unicode="&#x2463;" horiz-adv-x="832" 
d="M415 -17q-77 0 -144.5 29t-119.5 80.5t-80.5 119.5t-28.5 146q0 77 28.5 144.5t80.5 119t119.5 80.5t144.5 29q78 0 146 -29t119.5 -80.5t81 -119t29.5 -144.5q0 -78 -29.5 -146t-81 -119.5t-119.5 -80.5t-146 -29zM415 61q62 0 116.5 22.5t95 63.5t63 95t22.5 116
t-22.5 115.5t-63 94t-95 63t-116.5 22.5t-116 -22.5t-94 -63t-63 -94t-23 -115.5t23 -116t63 -95t94 -63.5t116 -22.5zM426 160v85h-181v58l180 244h78v-237h52v-65h-52v-85h-77zM323 310h103v134z" />
    <glyph glyph-name="uni2464" unicode="&#x2464;" horiz-adv-x="832" 
d="M415 -17q-77 0 -144.5 29t-119.5 80.5t-80.5 119.5t-28.5 146q0 77 28.5 144.5t80.5 119t119.5 80.5t144.5 29q78 0 146 -29t119.5 -80.5t81 -119t29.5 -144.5q0 -78 -29.5 -146t-81 -119.5t-119.5 -80.5t-146 -29zM415 61q62 0 116.5 22.5t95 63.5t63 95t22.5 116
t-22.5 115.5t-63 94t-95 63t-116.5 22.5t-116 -22.5t-94 -63t-63 -94t-23 -115.5t23 -116t63 -95t94 -63.5t116 -22.5zM415 152q-63 0 -99 27.5t-41 76.5l75 4q5 -22 21.5 -33t44.5 -11q34 0 52.5 18.5t18.5 52.5q0 30 -16 50.5t-48 20.5q-26 0 -42.5 -10t-27.5 -27h-71
l29 226h226v-64h-163l-10 -92q11 13 30 19.5t44 6.5q63 0 93.5 -37t30.5 -93q0 -63 -39 -99t-108 -36z" />
    <glyph glyph-name="uni2465" unicode="&#x2465;" horiz-adv-x="832" 
d="M415 -17q-77 0 -144.5 29t-119.5 80.5t-80.5 119.5t-28.5 146q0 77 28.5 144.5t80.5 119t119.5 80.5t144.5 29q78 0 146 -29t119.5 -80.5t81 -119t29.5 -144.5q0 -78 -29.5 -146t-81 -119.5t-119.5 -80.5t-146 -29zM415 61q62 0 116.5 22.5t95 63.5t63 95t22.5 116
t-22.5 115.5t-63 94t-95 63t-116.5 22.5t-116 -22.5t-94 -63t-63 -94t-23 -115.5t23 -116t63 -95t94 -63.5t116 -22.5zM418 152q-68 0 -109 46t-41 136q0 62 16.5 112t53 79.5t93.5 29.5q61 0 92 -24.5t42 -72.5l-71 -7q-5 21 -20.5 31t-43.5 10q-37 0 -60 -28t-26 -79
q11 17 33 28t53 11q61 0 99.5 -33.5t38.5 -101.5q0 -65 -42 -101t-108 -36zM419 216q36 0 56 20.5t20 54.5t-19 53t-56 19q-21 0 -38 -8.5t-26.5 -24.5t-10.5 -39q-1 -34 19.5 -54.5t54.5 -20.5z" />
    <glyph glyph-name="uni2466" unicode="&#x2466;" horiz-adv-x="832" 
d="M415 -17q-77 0 -144.5 29t-119.5 80.5t-80.5 119.5t-28.5 146q0 77 28.5 144.5t80.5 119t119.5 80.5t144.5 29q78 0 146 -29t119.5 -80.5t81 -119t29.5 -144.5q0 -78 -29.5 -146t-81 -119.5t-119.5 -80.5t-146 -29zM415 61q62 0 116.5 22.5t95 63.5t63 95t22.5 116
t-22.5 115.5t-63 94t-95 63t-116.5 22.5t-116 -22.5t-94 -63t-63 -94t-23 -115.5t23 -116t63 -95t94 -63.5t116 -22.5zM354 160q0 59 13.5 115t39 108t61.5 99h-182v66h265v-54q-39 -49 -66 -100t-41 -108.5t-14 -125.5h-76z" />
    <glyph glyph-name="uni2467" unicode="&#x2467;" horiz-adv-x="832" 
d="M415 -17q-77 0 -144.5 29t-119.5 80.5t-80.5 119.5t-28.5 146q0 77 28.5 144.5t80.5 119t119.5 80.5t144.5 29q78 0 146 -29t119.5 -80.5t81 -119t29.5 -144.5q0 -78 -29.5 -146t-81 -119.5t-119.5 -80.5t-146 -29zM415 61q62 0 116.5 22.5t95 63.5t63 95t22.5 116
t-22.5 115.5t-63 94t-95 63t-116.5 22.5t-116 -22.5t-94 -63t-63 -94t-23 -115.5t23 -116t63 -95t94 -63.5t116 -22.5zM418 152q-76 0 -113.5 30t-37.5 82q0 36 21.5 63.5t60.5 41.5q-30 10 -47 29.5t-17 56.5q0 47 33 73.5t100 26.5t100 -26.5t33 -73.5q0 -37 -17 -56.5
t-47 -29.5q38 -15 60 -42t22 -63q0 -52 -37.5 -82t-113.5 -30zM418 216q36 0 55 13.5t19 41.5q0 27 -19 45.5t-55 18.5q-35 0 -54.5 -18.5t-19.5 -45.5q0 -28 19.5 -41.5t54.5 -13.5zM418 396q27 0 42 12.5t15 37.5q0 22 -14.5 33.5t-42.5 11.5t-42.5 -11.5t-14.5 -33.5
q0 -25 15 -37.5t42 -12.5z" />
    <glyph glyph-name="uni2468" unicode="&#x2468;" horiz-adv-x="832" 
d="M415 -17q-77 0 -144.5 29t-119.5 80.5t-80.5 119.5t-28.5 146q0 77 28.5 144.5t80.5 119t119.5 80.5t144.5 29q78 0 146 -29t119.5 -80.5t81 -119t29.5 -144.5q0 -78 -29.5 -146t-81 -119.5t-119.5 -80.5t-146 -29zM415 61q62 0 116.5 22.5t95 63.5t63 95t22.5 116
t-22.5 115.5t-63 94t-95 63t-116.5 22.5t-116 -22.5t-94 -63t-63 -94t-23 -115.5t23 -116t63 -95t94 -63.5t116 -22.5zM426 555q68 0 109 -46t41 -136q0 -62 -17 -112t-53 -79.5t-94 -29.5q-60 0 -91.5 24.5t-41.5 72.5l71 7q5 -20 20 -30.5t43 -10.5q38 0 60.5 28t26.5 79
q-10 -16 -32.5 -27.5t-54.5 -11.5q-60 0 -99 33.5t-39 101.5q0 65 42.5 101t108.5 36zM424 491q-36 0 -56 -20.5t-20 -54.5t19.5 -53t56.5 -19q22 0 38.5 8.5t26 24.5t9.5 39q1 34 -19 54.5t-55 20.5z" />
    <glyph glyph-name="uni24EA" unicode="&#x24ea;" horiz-adv-x="832" 
d="M415 -17q-77 0 -144.5 29t-119.5 80.5t-80.5 119.5t-28.5 146q0 77 28.5 144.5t80.5 119t119.5 80.5t144.5 29q78 0 146 -29t119.5 -80.5t81 -119t29.5 -144.5q0 -78 -29.5 -146t-81 -119.5t-119.5 -80.5t-146 -29zM415 61q62 0 116.5 22.5t95 63.5t63 95t22.5 116
t-22.5 115.5t-63 94t-95 63t-116.5 22.5t-116 -22.5t-94 -63t-63 -94t-23 -115.5t23 -116t63 -95t94 -63.5t116 -22.5zM418 152q-74 0 -118 54t-44 148t43.5 147.5t118.5 53.5q74 0 118 -53.5t44 -147.5t-44 -148t-118 -54zM418 218q42 0 63.5 34t21.5 102q0 66 -22 100.5
t-63 34.5q-42 0 -63.5 -33t-21.5 -102q0 -62 23 -99t62 -37zM364 214l-32 51l140 231l32 -50z" />
    <glyph glyph-name="uni24FF" unicode="&#x24ff;" horiz-adv-x="821" 
d="M413 152q75 0 118.5 54t43.5 148t-43.5 147.5t-118.5 53.5q-74 0 -118 -53.5t-44 -147.5t44.5 -148t117.5 -54zM413 218q-24 0 -42 15l118 194q9 -30 9 -73q0 -68 -21.5 -102t-63.5 -34zM339 283q-6 15 -8.5 33t-2.5 38q0 69 21.5 102t63.5 33q25 0 43 -12zM411 -12
q-76 0 -143 28.5t-118 79.5t-79.5 118t-28.5 144q0 76 28.5 142.5t79.5 117.5t118 79.5t143 28.5q77 0 143.5 -28.5t117.5 -79.5t79.5 -117.5t28.5 -142.5q0 -77 -28.5 -144t-79.5 -118t-117.5 -79.5t-143.5 -28.5z" />
    <glyph glyph-name="triagup" unicode="&#x25b2;" horiz-adv-x="858" 
d="M20 0l409 710l410 -710h-819z" />
    <glyph glyph-name="uni25B3" unicode="&#x25b3;" horiz-adv-x="858" 
d="M20 0l409 710l410 -710h-819zM176 93h507l-255 445z" />
    <glyph glyph-name="uni25B6" unicode="&#x25b6;" horiz-adv-x="816" 
d="M86 -1v713l710 -356z" />
    <glyph glyph-name="uni25B7" unicode="&#x25b7;" horiz-adv-x="816" 
d="M86 -1v713l710 -356zM173 140l428 216l-428 215v-431z" />
    <glyph glyph-name="triagdn" unicode="&#x25bc;" horiz-adv-x="806" 
d="M-6 710h819l-410 -710z" />
    <glyph glyph-name="uni25BD" unicode="&#x25bd;" horiz-adv-x="806" 
d="M-6 710h819l-410 -710zM150 617l252 -445l255 445h-507z" />
    <glyph glyph-name="uni25C0" unicode="&#x25c0;" horiz-adv-x="818" 
d="M732 -1l-710 357l710 356v-713z" />
    <glyph glyph-name="uni25C1" unicode="&#x25c1;" horiz-adv-x="818" 
d="M732 -1l-710 357l710 356v-713zM645 140v431l-428 -215z" />
    <glyph glyph-name="lozenge" unicode="&#x25ca;" horiz-adv-x="552" 
d="M233 0l170 322l-170 322h106l169 -322l-169 -322h-106zM213 0l-169 322l169 322h106l-170 -322l170 -322h-106z" />
    <glyph glyph-name="circle" unicode="&#x25cb;" horiz-adv-x="842" 
d="M421 -12q-80 0 -148.5 27.5t-120 77t-80 116.5t-28.5 147q0 81 28.5 148.5t80 117t120 77t148.5 27.5t148.5 -27.5t120 -77t80 -117t28.5 -148.5q0 -80 -28.5 -147t-80 -116.5t-120 -77t-148.5 -27.5zM421 75q61 0 113.5 20.5t91.5 58.5t61 89.5t22 112.5q0 62 -22 114
t-61 90t-91.5 58.5t-113.5 20.5t-113.5 -20.5t-91.5 -58.5t-61 -90t-22 -114q0 -61 22 -112.5t61 -89.5t91.5 -58.5t113.5 -20.5z" />
    <glyph glyph-name="uni25CC" unicode="&#x25cc;" horiz-adv-x="842" 
d="M688 114l-54 54q10 11 19 22t17 24l65 -43q-20 -30 -47 -57zM219 58q-30 19 -58 45l53 56q10 -9 21.5 -18.5t24.5 -17.5zM112 158q-10 15 -19.5 31.5t-17.5 32.5l72 31q5 -13 12.5 -25.5t15.5 -23.5zM357 5q-19 4 -37 8.5t-35 11.5l28 72q14 -5 28 -9t29 -7zM52 293
q-8 37 -8 73l77 1q0 -16 1.5 -30t5.5 -28zM421 5v77q15 0 29 1.5t29 3.5l15 -75q-18 -3 -36 -5t-37 -2zM127 425l-76 14q6 38 21 71l72 -29q-6 -13 -10.5 -27.5t-6.5 -28.5zM565 33l-29 71q14 6 27 13t24 15l43 -64q-15 -10 -31.5 -18.5t-33.5 -16.5zM172 532l-65 43
q20 30 47 57l55 -54q-10 -11 -19.5 -22t-17.5 -24zM255 614l-43 64q15 11 31.5 19.5t33.5 15.5l29 -71q-14 -6 -27 -13t-24 -15zM770 236l-71 29q5 14 9.5 28t6.5 28l76 -14q-6 -38 -21 -71zM363 659l-15 75q18 3 36 5t37 2v-77q-15 0 -29 -1.5t-29 -3.5zM721 379
q0 16 -1.5 30t-5.5 28l76 16q8 -37 8 -73zM529 649q-13 5 -27.5 9t-29.5 7l13 76q19 -4 37 -8.5t35 -11.5zM696 493q-5 14 -13 26t-16 23l63 46q11 -15 20.5 -31t16.5 -33zM629 587q-11 10 -22.5 19t-24.5 17l41 65q30 -19 58 -45z" />
    <glyph glyph-name="uni25CF" unicode="&#x25cf;" horiz-adv-x="842" 
d="M421 -12q-80 0 -148.5 27.5t-120 77t-80 116.5t-28.5 147q0 81 28.5 148.5t80 117t120 77t148.5 27.5t148.5 -27.5t120 -77t80 -117t28.5 -148.5q0 -80 -28.5 -147t-80 -116.5t-120 -77t-148.5 -27.5z" />
    <glyph glyph-name="uni2639" unicode="&#x2639;" horiz-adv-x="832" 
d="M221 206q12 51 40.5 87.5t69 56.5t90.5 20q49 0 90 -20t69 -56.5t40 -87.5h-76q-16 45 -48 69t-75 24t-75.5 -24t-48.5 -69h-76zM321 412q-21 0 -36 15t-15 37q0 20 15 34.5t36 14.5t36 -14.5t15 -34.5q0 -22 -15 -37t-36 -15zM522 412q-21 0 -36 15t-15 37q0 20 15 34.5
t36 14.5t36 -14.5t15 -34.5q0 -22 -15 -37t-36 -15zM415 -17q-77 0 -144.5 29t-119.5 80.5t-80.5 119.5t-28.5 146q0 77 28.5 144.5t80.5 119t119.5 80.5t144.5 29q78 0 146 -29t119.5 -80.5t81 -119t29.5 -144.5q0 -78 -29.5 -146t-81 -119.5t-119.5 -80.5t-146 -29z
M415 61q62 0 116.5 22.5t95 63.5t63 95t22.5 116t-22.5 115.5t-63 94t-95 63t-116.5 22.5t-116 -22.5t-94 -63t-63 -94t-23 -115.5t23 -116t63 -95t94 -63.5t116 -22.5z" />
    <glyph glyph-name="smileface" unicode="&#x263a;" horiz-adv-x="832" 
d="M421 164q-55 0 -101 24.5t-76 66.5t-38 96h72q12 -50 51.5 -83.5t91.5 -33.5t91.5 33.5t51.5 83.5h73q-8 -54 -38.5 -96t-76.5 -66.5t-101 -24.5zM321 412q-21 0 -36 15t-15 37q0 20 15 34.5t36 14.5t36 -14.5t15 -34.5q0 -22 -15 -37t-36 -15zM522 412q-21 0 -36 15
t-15 37q0 20 15 34.5t36 14.5t36 -14.5t15 -34.5q0 -22 -15 -37t-36 -15zM415 -17q-77 0 -144.5 29t-119.5 80.5t-80.5 119.5t-28.5 146q0 77 28.5 144.5t80.5 119t119.5 80.5t144.5 29q78 0 146 -29t119.5 -80.5t81 -119t29.5 -144.5q0 -78 -29.5 -146t-81 -119.5
t-119.5 -80.5t-146 -29zM415 61q62 0 116.5 22.5t95 63.5t63 95t22.5 116t-22.5 115.5t-63 94t-95 63t-116.5 22.5t-116 -22.5t-94 -63t-63 -94t-23 -115.5t23 -116t63 -95t94 -63.5t116 -22.5z" />
    <glyph glyph-name="uni2776" unicode="&#x2776;" horiz-adv-x="821" 
d="M394 160h77v388h-60q0 -41 -22.5 -64t-67.5 -23h-25v-58l98 1v-244zM411 -12q-76 0 -143 28.5t-118 79.5t-79.5 118t-28.5 144q0 76 28.5 142.5t79.5 117.5t118 79.5t143 28.5q77 0 143.5 -28.5t117.5 -79.5t79.5 -117.5t28.5 -142.5q0 -77 -28.5 -144t-79.5 -118
t-117.5 -79.5t-143.5 -28.5z" />
    <glyph glyph-name="uni2777" unicode="&#x2777;" horiz-adv-x="821" 
d="M278 160h273v66h-189q0 17 12 35t41 33l43 22q44 22 69 50t25 75q0 51 -34 82.5t-97 31.5q-64 0 -100.5 -34t-42.5 -93l72 -3q5 34 22 50t50 16q24 0 40 -13.5t16 -37.5q0 -17 -4.5 -28.5t-15 -20.5t-28.5 -19l-51 -27q-43 -23 -65 -48.5t-29 -58t-7 -78.5zM411 -12
q-76 0 -143 28.5t-118 79.5t-79.5 118t-28.5 144q0 76 28.5 142.5t79.5 117.5t118 79.5t143 28.5q77 0 143.5 -28.5t117.5 -79.5t79.5 -117.5t28.5 -142.5q0 -77 -28.5 -144t-79.5 -118t-117.5 -79.5t-143.5 -28.5z" />
    <glyph glyph-name="uni2778" unicode="&#x2778;" horiz-adv-x="821" 
d="M416 152q66 0 106.5 32t40.5 86q0 34 -19 59.5t-68 36.5q33 9 51 29t18 55q0 46 -33 75.5t-101 29.5q-63 0 -97 -30t-40 -77l75 -5q2 20 17.5 33.5t44.5 13.5q30 0 44 -14t14 -36q0 -23 -16 -35.5t-42 -12.5h-27v-61h27q40 0 58 -16t18 -42q0 -27 -18.5 -42t-52.5 -15
q-37 0 -53.5 14t-18.5 36l-76 -3q3 -33 17 -58.5t45 -39t86 -13.5zM411 -12q-76 0 -143 28.5t-118 79.5t-79.5 118t-28.5 144q0 76 28.5 142.5t79.5 117.5t118 79.5t143 28.5q77 0 143.5 -28.5t117.5 -79.5t79.5 -117.5t28.5 -142.5q0 -77 -28.5 -144t-79.5 -118
t-117.5 -79.5t-143.5 -28.5z" />
    <glyph glyph-name="uni2779" unicode="&#x2779;" horiz-adv-x="821" 
d="M423 160h76v85h53v65h-53v237h-77l-180 -244v-58h181v-85zM319 310l104 134v-134h-104zM411 -12q-76 0 -143 28.5t-118 79.5t-79.5 118t-28.5 144q0 76 28.5 142.5t79.5 117.5t118 79.5t143 28.5q77 0 143.5 -28.5t117.5 -79.5t79.5 -117.5t28.5 -142.5q0 -77 -28.5 -144
t-79.5 -118t-117.5 -79.5t-143.5 -28.5z" />
    <glyph glyph-name="uni277A" unicode="&#x277a;" horiz-adv-x="821" 
d="M410 152q69 0 108 36t39 99q0 56 -30.5 93t-93.5 37q-25 0 -43.5 -6.5t-30.5 -19.5l10 92h163v64h-226l-29 -226h72q10 17 26.5 27t42.5 10q32 0 48 -20.5t16 -50.5q0 -34 -18.5 -52.5t-52.5 -18.5q-27 0 -43.5 11t-22.5 33l-75 -4q5 -49 41 -76.5t99 -27.5zM411 -12
q-76 0 -143 28.5t-118 79.5t-79.5 118t-28.5 144q0 76 28.5 142.5t79.5 117.5t118 79.5t143 28.5q77 0 143.5 -28.5t117.5 -79.5t79.5 -117.5t28.5 -142.5q0 -77 -28.5 -144t-79.5 -118t-117.5 -79.5t-143.5 -28.5z" />
    <glyph glyph-name="uni277B" unicode="&#x277b;" horiz-adv-x="821" 
d="M418 152q66 0 108.5 36t42.5 101q0 68 -39 101.5t-99 33.5q-31 0 -53.5 -11t-33.5 -28q4 51 26.5 79t60.5 28q28 0 43 -10t20 -31l71 7q-10 48 -41.5 72.5t-91.5 24.5q-58 0 -94 -29.5t-53 -79.5t-17 -112q0 -90 41 -136t109 -46zM420 216q-35 0 -55 20.5t-19 54.5
q1 23 10 39t26 24.5t38 8.5q37 0 56.5 -19t19.5 -53t-20 -54.5t-56 -20.5zM411 -12q-76 0 -143 28.5t-118 79.5t-79.5 118t-28.5 144q0 76 28.5 142.5t79.5 117.5t118 79.5t143 28.5q77 0 143.5 -28.5t117.5 -79.5t79.5 -117.5t28.5 -142.5q0 -77 -28.5 -144t-79.5 -118
t-117.5 -79.5t-143.5 -28.5z" />
    <glyph glyph-name="uni277C" unicode="&#x277c;" horiz-adv-x="821" 
d="M355 160h75q0 68 14.5 125.5t41.5 108.5t66 100v54h-266v-66h182q-36 -47 -61 -99t-38.5 -108t-13.5 -115zM411 -12q-76 0 -143 28.5t-118 79.5t-79.5 118t-28.5 144q0 76 28.5 142.5t79.5 117.5t118 79.5t143 28.5q77 0 143.5 -28.5t117.5 -79.5t79.5 -117.5
t28.5 -142.5q0 -77 -28.5 -144t-79.5 -118t-117.5 -79.5t-143.5 -28.5z" />
    <glyph glyph-name="uni277D" unicode="&#x277d;" horiz-adv-x="821" 
d="M415 152q76 0 113.5 30t37.5 82q0 36 -22 63t-60 42q30 10 47 29.5t17 56.5q0 47 -33 73.5t-100 26.5t-100 -26.5t-33 -73.5q0 -37 17 -56.5t47 -29.5q-39 -14 -60.5 -41.5t-21.5 -63.5q0 -52 37.5 -82t113.5 -30zM415 216q-35 0 -54.5 13.5t-19.5 41.5q0 27 19.5 45.5
t54.5 18.5q36 0 55 -18.5t19 -45.5q0 -28 -19 -41.5t-55 -13.5zM415 396q-27 0 -42 12.5t-15 37.5q0 22 14.5 33.5t42.5 11.5t42.5 -11.5t14.5 -33.5q0 -25 -15 -37.5t-42 -12.5zM411 -12q-76 0 -143 28.5t-118 79.5t-79.5 118t-28.5 144q0 76 28.5 142.5t79.5 117.5
t118 79.5t143 28.5q77 0 143.5 -28.5t117.5 -79.5t79.5 -117.5t28.5 -142.5q0 -77 -28.5 -144t-79.5 -118t-117.5 -79.5t-143.5 -28.5z" />
    <glyph glyph-name="uni277E" unicode="&#x277e;" horiz-adv-x="821" 
d="M416 555q-66 0 -108 -36t-42 -101q0 -68 38.5 -101.5t99.5 -33.5q32 0 54 11.5t32 27.5q-3 -51 -26 -79t-60 -28q-28 0 -43.5 10.5t-20.5 30.5l-71 -7q11 -48 42 -72.5t92 -24.5q57 0 93.5 29.5t53 79.5t16.5 112q0 90 -40.5 136t-109.5 46zM415 491q35 0 55 -20.5
t19 -54.5q0 -23 -10 -39t-26.5 -24.5t-38.5 -8.5q-37 0 -56 19t-19 53t20 54.5t56 20.5zM411 -12q-76 0 -143 28.5t-118 79.5t-79.5 118t-28.5 144q0 76 28.5 142.5t79.5 117.5t118 79.5t143 28.5q77 0 143.5 -28.5t117.5 -79.5t79.5 -117.5t28.5 -142.5q0 -77 -28.5 -144
t-79.5 -118t-117.5 -79.5t-143.5 -28.5z" />
    <glyph glyph-name="uni3003" unicode="&#x3003;" horiz-adv-x="376" 
d="M42 281l62 200h100l-92 -200h-70zM173 281l63 200h99l-91 -200h-71z" />
    <glyph glyph-name="uni3008" unicode="&#x3008;" horiz-adv-x="366" 
d="M220 -114l-178 468l178 467h104l-179 -467l179 -468h-104z" />
    <glyph glyph-name="uni3009" unicode="&#x3009;" horiz-adv-x="366" 
d="M145 -114h-103l178 468l-178 467h103l179 -467z" />
    <glyph glyph-name="uni300A" unicode="&#x300a;" horiz-adv-x="556" 
d="M220 -114l-178 468l178 467h104l-179 -467l179 -468h-104zM411 -114l-178 468l178 467h104l-179 -467l179 -468h-104z" />
    <glyph glyph-name="uni300B" unicode="&#x300b;" horiz-adv-x="556" 
d="M336 -114h-104l179 468l-179 467h104l179 -467zM145 -114h-103l178 468l-178 467h103l179 -467z" />
    <glyph glyph-name="uni300C" unicode="&#x300c;" horiz-adv-x="387" 
d="M42 235v591h303v-84h-217v-507h-86z" />
    <glyph glyph-name="uni300D" unicode="&#x300d;" horiz-adv-x="387" 
d="M345 488v-591h-303v84h217v507h86z" />
    <glyph glyph-name="uni300E" unicode="&#x300e;" horiz-adv-x="386" 
d="M42 233v593h303v-160h-143v-433h-160zM83 274h77v433h143v78h-220v-511z" />
    <glyph glyph-name="uni300F" unicode="&#x300f;" horiz-adv-x="386" 
d="M345 492v-593h-303v160h143v433h160zM303 451h-77v-433h-143v-78h220v511z" />
    <glyph glyph-name="uni3010" unicode="&#x3010;" horiz-adv-x="360" 
d="M319 -63h-277v888h277q-133 -214 -133 -444q0 -228 133 -444z" />
    <glyph glyph-name="uni3011" unicode="&#x3011;" horiz-adv-x="360" 
d="M42 -63q133 216 133 444q0 230 -133 444h277v-888h-277z" />
    <glyph glyph-name="uni3014" unicode="&#x3014;" horiz-adv-x="390" 
d="M293 -146l-251 226v547l249 223l56 -61l-219 -196v-479l221 -199z" />
    <glyph glyph-name="uni3015" unicode="&#x3015;" horiz-adv-x="390" 
d="M98 -146l-56 61l221 199v479l-219 196l56 61l249 -223v-547z" />
    <glyph glyph-name="uni3016" unicode="&#x3016;" horiz-adv-x="360" 
d="M318 -63h-276v888h276q-133 -214 -133 -444q0 -228 133 -444zM240 -19q-50 100 -75 200.5t-25 199.5q0 100 25 200.5t75 199.5h-153v-800h153z" />
    <glyph glyph-name="uni3017" unicode="&#x3017;" horiz-adv-x="360" 
d="M42 -63q133 216 133 444q0 230 -133 444h276v-888h-276zM120 -19h152v800h-152q51 -99 75.5 -199.5t24.5 -200.5q0 -99 -24.5 -199.5t-75.5 -200.5z" />
    <glyph glyph-name="uni301C" unicode="&#x301c;" horiz-adv-x="854" 
d="M595 198q-36 0 -64 7t-56 21t-64 33q-36 20 -73.5 31.5t-71.5 11.5q-46 0 -86.5 -22t-87.5 -66l-50 73q45 42 81.5 65.5t72 33.5t74.5 10q36 0 78.5 -12.5t94.5 -40.5q39 -20 62.5 -31.5t43 -15.5t44.5 -4q28 0 53.5 8t53 27t62.5 51l51 -74q-56 -53 -111 -79.5
t-107 -26.5z" />
    <glyph glyph-name="uniA78B" unicode="&#xa78b;" horiz-adv-x="193" 
d="M56 343l-12 240v127h105v-127l-13 -240h-80z" />
    <glyph glyph-name="uniA78C" unicode="&#xa78c;" horiz-adv-x="250" 
d="M88 363l-13 260v87h100v-87l-13 -260h-74z" />
    <glyph glyph-name="uniF8FF" unicode="&#xf8ff;" horiz-adv-x="600" 
d="M105 0q-42 0 -69.5 27.5t-27.5 69.5v390q0 42 27.5 69.5t69.5 27.5h390q42 0 69.5 -27.5t27.5 -69.5v-390q0 -42 -27.5 -69.5t-69.5 -27.5h-390zM86 124h427l-214 371z" />
    <glyph glyph-name="uni004A0301" horiz-adv-x="607" 
d="M298 -16q-71 0 -124.5 32.5t-82.5 90t-30 132.5l110 6q1 -80 34 -121t93 -41q63 0 96.5 43t33.5 124v460h108v-460q0 -81 -29.5 -141t-82.5 -92.5t-126 -32.5zM436 774l63 134h111l-90 -134h-84z" />
    <glyph glyph-name="uni013B.loclMAH" horiz-adv-x="583" 
d="M86 0v710h108v-670l-57 59h403v-99h-454zM240 -244l54 94h-36v98h110v-89l-60 -103h-68z" />
    <glyph glyph-name="uni0145.loclMAH" horiz-adv-x="745" 
d="M86 0v710h137l328 -579v579h108v-710h-142l-323 566v-566h-108zM297 -244l54 94h-36v98h110v-89l-60 -103h-68z" />
    <glyph glyph-name="R.ss04" horiz-adv-x="688" 
d="M86 0v710h265q123 0 190.5 -57.5t67.5 -160.5q0 -72 -37 -124t-108 -73l166 -295h-118l-155 278h-5h-5h-153v-278h-108zM194 376h154q71 0 110 30t39 87t-39 87.5t-110 30.5h-154v-235z" />
    <glyph glyph-name="Racute.ss04" horiz-adv-x="688" 
d="M86 0v710h265q123 0 190.5 -57.5t67.5 -160.5q0 -72 -37 -124t-108 -73l166 -295h-118l-155 278h-5h-5h-153v-278h-108zM194 376h154q71 0 110 30t39 87t-39 87.5t-110 30.5h-154v-235zM288 774l63 134h111l-90 -134h-84z" />
    <glyph glyph-name="Rcaron.ss04" horiz-adv-x="688" 
d="M86 0v710h265q123 0 190.5 -57.5t67.5 -160.5q0 -72 -37 -124t-108 -73l166 -295h-118l-155 278h-5h-5h-153v-278h-108zM194 376h154q71 0 110 30t39 87t-39 87.5t-110 30.5h-154v-235zM188 913h81l76 -103h-20l76 103h81l-92 -139h-110z" />
    <glyph glyph-name="uni0156.ss04" horiz-adv-x="688" 
d="M86 0v710h265q123 0 190.5 -57.5t67.5 -160.5q0 -72 -37 -124t-108 -73l166 -295h-118l-155 278h-5h-5h-153v-278h-108zM194 376h154q71 0 110 30t39 87t-39 87.5t-110 30.5h-154v-235zM262 -244l54 94h-36v98h110v-89l-60 -103h-68z" />
    <glyph glyph-name="I.ss05" horiz-adv-x="441" 
d="M44 0v99h123v512h-117v99h341v-99h-116v-512h122v-99h-353z" />
    <glyph glyph-name="Iacute.ss05" horiz-adv-x="441" 
d="M44 0v99h123v512h-117v99h341v-99h-116v-512h122v-99h-353zM174 774l63 134h111l-90 -134h-84z" />
    <glyph glyph-name="Icircumflex.ss05" horiz-adv-x="441" 
d="M44 0v99h123v512h-117v99h341v-99h-116v-512h122v-99h-353zM74 774l92 139h110l92 -139h-81l-76 103h20l-76 -103h-81z" />
    <glyph glyph-name="Idieresis.ss05" horiz-adv-x="441" 
d="M44 0v99h123v512h-117v99h341v-99h-116v-512h122v-99h-353zM74 786v106h106v-106h-106zM261 786v106h107v-106h-107z" />
    <glyph glyph-name="Idotaccent.ss05" horiz-adv-x="441" 
d="M44 0v99h123v512h-117v99h341v-99h-116v-512h122v-99h-353zM166 787v106h110v-106h-110z" />
    <glyph glyph-name="Igrave.ss05" horiz-adv-x="441" 
d="M44 0v99h123v512h-117v99h341v-99h-116v-512h122v-99h-353zM184 779l-90 135h111l63 -135h-84z" />
    <glyph glyph-name="Imacron.ss05" horiz-adv-x="441" 
d="M44 0v99h123v512h-117v99h341v-99h-116v-512h122v-99h-353zM82 797v85h278v-85h-278z" />
    <glyph glyph-name="Iogonek.ss05" horiz-adv-x="441" 
d="M44 0v99h123v512h-117v99h341v-99h-116v-512h122v-99h-353zM340 -212q-46 0 -72.5 19t-26.5 56q0 29 17.5 59t36.5 57l31 41l72 -20l-34 -45q-17 -24 -24 -39t-7 -28q0 -12 8 -18.5t20 -6.5q14 0 26 3.5t21 9.5l25 -62q-12 -11 -38.5 -18.5t-54.5 -7.5z" />
    <glyph glyph-name="Itilde.ss05" horiz-adv-x="441" 
d="M44 0v99h123v512h-117v99h341v-99h-116v-512h122v-99h-353zM278 785q-20 0 -37 7t-35 21q-15 13 -24.5 18.5t-22.5 5.5q-17 0 -28.5 -12t-13.5 -47h-59q1 61 28.5 93.5t71.5 32.5q24 0 42 -8t36 -22q14 -12 24.5 -17t21.5 -5q18 0 28 12.5t12 48.5h60q-3 -60 -30 -94
t-74 -34z" />
    <glyph glyph-name="G.ss06" horiz-adv-x="703" 
d="M368 -16q-106 0 -178 49t-109 133t-37 188q0 105 38.5 189t112 133.5t177.5 49.5q124 0 196.5 -65t93.5 -174l-113 -6q-7 42 -28 75.5t-57 52t-93 18.5q-75 0 -123 -37t-70 -99t-22 -137q0 -78 22.5 -139.5t69.5 -96.5t119 -35q62 0 104 24.5t64.5 67.5t25.5 96h-190v91
h293v-43q0 -107 -34.5 -182t-101 -114t-160.5 -39z" />
    <glyph glyph-name="Gbreve.ss06" horiz-adv-x="703" 
d="M368 -16q-106 0 -178 49t-109 133t-37 188q0 105 38.5 189t112 133.5t177.5 49.5q124 0 196.5 -65t93.5 -174l-113 -6q-7 42 -28 75.5t-57 52t-93 18.5q-75 0 -123 -37t-70 -99t-22 -137q0 -78 22.5 -139.5t69.5 -96.5t119 -35q62 0 104 24.5t64.5 67.5t25.5 96h-190v91
h293v-43q0 -107 -34.5 -182t-101 -114t-160.5 -39zM370 777q-64 0 -103 36.5t-42 98.5h67q5 -34 25.5 -50t52.5 -16q34 0 54 16t23 50h68q-3 -62 -41.5 -98.5t-103.5 -36.5z" />
    <glyph glyph-name="Gcircumflex.ss06" horiz-adv-x="703" 
d="M368 -16q-106 0 -178 49t-109 133t-37 188q0 105 38.5 189t112 133.5t177.5 49.5q124 0 196.5 -65t93.5 -174l-113 -6q-7 42 -28 75.5t-57 52t-93 18.5q-75 0 -123 -37t-70 -99t-22 -137q0 -78 22.5 -139.5t69.5 -96.5t119 -35q62 0 104 24.5t64.5 67.5t25.5 96h-190v91
h293v-43q0 -107 -34.5 -182t-101 -114t-160.5 -39zM223 774l92 139h110l92 -139h-81l-76 103h20l-76 -103h-81z" />
    <glyph glyph-name="uni0122.ss06" horiz-adv-x="703" 
d="M368 -16q-106 0 -178 49t-109 133t-37 188q0 105 38.5 189t112 133.5t177.5 49.5q124 0 196.5 -65t93.5 -174l-113 -6q-7 42 -28 75.5t-57 52t-93 18.5q-75 0 -123 -37t-70 -99t-22 -137q0 -78 22.5 -139.5t69.5 -96.5t119 -35q62 0 104 24.5t64.5 67.5t25.5 96h-190v91
h293v-43q0 -107 -34.5 -182t-101 -114t-160.5 -39zM300 -244l54 94h-36v98h110v-89l-60 -103h-68z" />
    <glyph glyph-name="Gdotaccent.ss06" horiz-adv-x="703" 
d="M368 -16q-106 0 -178 49t-109 133t-37 188q0 105 38.5 189t112 133.5t177.5 49.5q124 0 196.5 -65t93.5 -174l-113 -6q-7 42 -28 75.5t-57 52t-93 18.5q-75 0 -123 -37t-70 -99t-22 -137q0 -78 22.5 -139.5t69.5 -96.5t119 -35q62 0 104 24.5t64.5 67.5t25.5 96h-190v91
h293v-43q0 -107 -34.5 -182t-101 -114t-160.5 -39zM316 787v106h110v-106h-110z" />
    <glyph glyph-name="uni1E20.ss06" horiz-adv-x="703" 
d="M368 -16q-106 0 -178 49t-109 133t-37 188q0 105 38.5 189t112 133.5t177.5 49.5q124 0 196.5 -65t93.5 -174l-113 -6q-7 42 -28 75.5t-57 52t-93 18.5q-75 0 -123 -37t-70 -99t-22 -137q0 -78 22.5 -139.5t69.5 -96.5t119 -35q62 0 104 24.5t64.5 67.5t25.5 96h-190v91
h293v-43q0 -107 -34.5 -182t-101 -114t-160.5 -39zM232 797v85h278v-85h-278z" />
    <glyph glyph-name="Adieresis.ss08" horiz-adv-x="689" 
d="M20 0l256 710h137l256 -710h-115l-65 185h-290l-64 -185h-115zM233 283h223l-112 324zM249 782q-25 0 -40.5 15t-15.5 42q0 26 15.5 41.5t40.5 15.5t40.5 -15.5t15.5 -41.5q0 -27 -15.5 -42t-40.5 -15zM439 782q-25 0 -40.5 15t-15.5 42q0 26 15.5 41.5t40.5 15.5
t40.5 -15.5t15.5 -41.5q0 -27 -15.5 -42t-40.5 -15z" />
    <glyph glyph-name="Cdotaccent.ss08" horiz-adv-x="713" 
d="M368 -16q-96 0 -169 44.5t-114 127.5t-41 198q0 114 40.5 197.5t113.5 129t171 45.5q132 0 205 -66t95 -183l-113 -6q-14 73 -60 114.5t-127 41.5q-65 0 -112.5 -33t-74 -94t-26.5 -146t26.5 -146t74.5 -93t111 -32q86 0 133.5 45.5t59.5 125.5l113 -6q-13 -81 -52 -140
t-103 -91.5t-151 -32.5zM368 782q-25 0 -41 15t-16 42q0 26 16 41.5t41 15.5t41 -15.5t16 -41.5q0 -27 -16 -42t-41 -15z" />
    <glyph glyph-name="Edieresis.ss08" horiz-adv-x="609" 
d="M86 0v710h462v-99h-354v-207h342v-96h-342v-209h362v-99h-470zM224 782q-25 0 -40.5 15t-15.5 42q0 26 15.5 41.5t40.5 15.5t40.5 -15.5t15.5 -41.5q0 -27 -15.5 -42t-40.5 -15zM414 782q-25 0 -40.5 15t-15.5 42q0 26 15.5 41.5t40.5 15.5t40.5 -15.5t15.5 -41.5
q0 -27 -15.5 -42t-40.5 -15z" />
    <glyph glyph-name="Edotaccent.ss08" horiz-adv-x="609" 
d="M86 0v710h462v-99h-354v-207h342v-96h-342v-209h362v-99h-470zM320 782q-25 0 -41 15t-16 42q0 26 16 41.5t41 15.5t41 -15.5t16 -41.5q0 -27 -16 -42t-41 -15z" />
    <glyph glyph-name="Gdotaccent.ss08" horiz-adv-x="713" 
d="M365 -16q-101 0 -173 47.5t-110 131t-38 191.5q0 107 38.5 191t111.5 132.5t175 48.5q87 0 147.5 -31t96 -85t49.5 -123l-113 -6q-12 65 -54 105.5t-126 40.5q-74 0 -121 -37t-69.5 -99t-22.5 -137q0 -78 22.5 -139t70 -96.5t121.5 -35.5q58 0 100 25t65.5 68t25.5 95
h-190v91h293v-362h-74l-7 160l14 -12q-11 -48 -45 -85t-82.5 -58t-104.5 -21zM370 782q-25 0 -41 15t-16 42q0 26 16 41.5t41 15.5t41 -15.5t16 -41.5q0 -27 -16 -42t-41 -15z" />
    <glyph glyph-name="Idieresis.ss08" horiz-adv-x="280" 
d="M86 0v710h108v-710h-108zM45 782q-25 0 -40.5 15t-15.5 42q0 26 15.5 41.5t40.5 15.5t40.5 -15.5t15.5 -41.5q0 -27 -15.5 -42t-40.5 -15zM235 782q-25 0 -40.5 15t-15.5 42q0 26 15.5 41.5t40.5 15.5t40.5 -15.5t15.5 -41.5q0 -27 -15.5 -42t-40.5 -15z" />
    <glyph glyph-name="Idotaccent.ss08" horiz-adv-x="280" 
d="M86 0v710h108v-710h-108zM141 782q-25 0 -41 15t-16 42q0 26 16 41.5t41 15.5t41 -15.5t16 -41.5q0 -27 -16 -42t-41 -15z" />
    <glyph glyph-name="Odieresis.ss08" horiz-adv-x="751" 
d="M375 -16q-103 0 -177 44.5t-114 127.5t-40 198t40 198.5t114 128.5t177 45q104 0 178.5 -45t114 -128.5t39.5 -198.5t-39.5 -198t-114 -127.5t-178.5 -44.5zM375 83q69 0 118.5 32t75.5 92.5t26 146.5t-26 147t-75.5 93.5t-118.5 32.5q-68 0 -117 -32.5t-75.5 -93.5
t-26.5 -147t26.5 -146.5t75.5 -92.5t117 -32zM280 782q-25 0 -40.5 15t-15.5 42q0 26 15.5 41.5t40.5 15.5t40.5 -15.5t15.5 -41.5q0 -27 -15.5 -42t-40.5 -15zM470 782q-25 0 -40.5 15t-15.5 42q0 26 15.5 41.5t40.5 15.5t40.5 -15.5t15.5 -41.5q0 -27 -15.5 -42t-40.5 -15
z" />
    <glyph glyph-name="Udieresis.ss08" horiz-adv-x="694" 
d="M347 -16q-84 0 -146.5 32.5t-96 92.5t-33.5 142v460h108v-460q0 -81 44 -124.5t124 -43.5t124 43.5t44 124.5v460h108v-460q0 -82 -33.5 -142t-95.5 -92.5t-147 -32.5zM252 782q-25 0 -40.5 15t-15.5 42q0 26 15.5 41.5t40.5 15.5t40.5 -15.5t15.5 -41.5q0 -27 -15.5 -42
t-40.5 -15zM442 782q-25 0 -40.5 15t-15.5 42q0 26 15.5 41.5t40.5 15.5t40.5 -15.5t15.5 -41.5q0 -27 -15.5 -42t-40.5 -15z" />
    <glyph glyph-name="Wdieresis.ss08" horiz-adv-x="968" 
d="M226 0l-188 710h115l138 -561l138 561h110l138 -561l137 561h117l-189 -710h-126l-132 518l-132 -518h-126zM389 782q-25 0 -40.5 15t-15.5 42q0 26 15.5 41.5t40.5 15.5t40.5 -15.5t15.5 -41.5q0 -27 -15.5 -42t-40.5 -15zM579 782q-25 0 -40.5 15t-15.5 42
q0 26 15.5 41.5t40.5 15.5t40.5 -15.5t15.5 -41.5q0 -27 -15.5 -42t-40.5 -15z" />
    <glyph glyph-name="Ydieresis.ss08" horiz-adv-x="594" 
d="M243 0v285l-249 425h124l179 -317l180 317h124l-250 -425v-285h-108zM202 782q-25 0 -40.5 15t-15.5 42q0 26 15.5 41.5t40.5 15.5t40.5 -15.5t15.5 -41.5q0 -27 -15.5 -42t-40.5 -15zM392 782q-25 0 -40.5 15t-15.5 42q0 26 15.5 41.5t40.5 15.5t40.5 -15.5t15.5 -41.5
q0 -27 -15.5 -42t-40.5 -15z" />
    <glyph glyph-name="Zdotaccent.ss08" horiz-adv-x="561" 
d="M28 0v100l366 511h-352v99h480v-100l-368 -511h379v-99h-505zM290 782q-25 0 -41 15t-16 42q0 26 16 41.5t41 15.5t41 -15.5t16 -41.5q0 -27 -16 -42t-41 -15z" />
    <glyph glyph-name="Idieresis.ss05.ss08" horiz-adv-x="441" 
d="M44 0v99h123v512h-117v99h341v-99h-116v-512h122v-99h-353zM126 782q-25 0 -40.5 15t-15.5 42q0 26 15.5 41.5t40.5 15.5t40.5 -15.5t15.5 -41.5q0 -27 -15.5 -42t-40.5 -15zM316 782q-25 0 -40.5 15t-15.5 42q0 26 15.5 41.5t40.5 15.5t40.5 -15.5t15.5 -41.5
q0 -27 -15.5 -42t-40.5 -15z" />
    <glyph glyph-name="Idotaccent.ss05.ss08" horiz-adv-x="441" 
d="M44 0v99h123v512h-117v99h341v-99h-116v-512h122v-99h-353zM222 782q-25 0 -41 15t-16 42q0 26 16 41.5t41 15.5t41 -15.5t16 -41.5q0 -27 -16 -42t-41 -15z" />
    <glyph glyph-name="Gdotaccent.ss06.ss08" horiz-adv-x="703" 
d="M368 -16q-106 0 -178 49t-109 133t-37 188q0 105 38.5 189t112 133.5t177.5 49.5q124 0 196.5 -65t93.5 -174l-113 -6q-7 42 -28 75.5t-57 52t-93 18.5q-75 0 -123 -37t-70 -99t-22 -137q0 -78 22.5 -139.5t69.5 -96.5t119 -35q62 0 104 24.5t64.5 67.5t25.5 96h-190v91
h293v-43q0 -107 -34.5 -182t-101 -114t-160.5 -39zM371 782q-25 0 -41 15t-16 42q0 26 16 41.5t41 15.5t41 -15.5t16 -41.5q0 -27 -16 -42t-41 -15z" />
    <glyph glyph-name="A_I.dlig" horiz-adv-x="1130" 
d="M20 0l256 710h137l256 -710h-115l-65 185h-290l-64 -185h-115zM233 283h223l-112 324zM733 0v99h123v512h-117v99h341v-99h-116v-512h122v-99h-353z" />
    <glyph glyph-name="U_I.dlig" horiz-adv-x="1135" 
d="M347 -16q-84 0 -146.5 32.5t-96 92.5t-33.5 142v460h108v-460q0 -81 44 -124.5t124 -43.5t124 43.5t44 124.5v460h108v-460q0 -82 -33.5 -142t-95.5 -92.5t-147 -32.5zM738 0v99h123v512h-117v99h341v-99h-116v-512h122v-99h-353z" />
    <glyph glyph-name="i.loclTRK" horiz-adv-x="256" 
d="M75 0v532h106v-532h-106zM73 609v106h110v-106h-110z" />
    <glyph glyph-name="uni006A0301" horiz-adv-x="284" 
d="M-4 -150v87h48q27 0 42.5 12t15.5 46v537h107v-541q0 -76 -34.5 -108.5t-114.5 -32.5h-64zM109 596l63 134h111l-90 -134h-84z" />
    <glyph glyph-name="uni013C.loclMAH" horiz-adv-x="282" 
d="M191 0q-52 0 -84 27t-32 86v597h106v-587q0 -18 9.5 -27t27.5 -9h42v-87h-69zM80 -244l54 94h-36v98h110v-89l-60 -103h-68z" />
    <glyph glyph-name="uni0146.loclMAH" horiz-adv-x="591" 
d="M75 0v532h97l4 -142l-13 7q9 52 34 84t61 47.5t78 15.5q60 0 99.5 -26.5t60 -72t20.5 -103.5v-342h-106v310q0 47 -10 79t-33 49t-60 17q-56 0 -91 -37t-35 -108v-310h-106zM223 -244l54 94h-36v98h110v-89l-60 -103h-68z" />
    <glyph glyph-name="a.ss01" horiz-adv-x="571" 
d="M219 -12q-83 0 -132.5 38t-49.5 107t41.5 107.5t128.5 55.5l183 35q0 62 -29 92.5t-86 30.5q-51 0 -80 -22.5t-40 -66.5l-109 7q15 80 74.5 126t154.5 46q108 0 164.5 -57.5t56.5 -161.5v-325h-94l-4 118l10 -4q-7 -37 -34 -65t-67.5 -44.5t-87.5 -16.5zM236 72
q48 0 82 18.5t53 51.5t19 75v34l-156 -30q-48 -9 -67.5 -28.5t-19.5 -49.5q0 -34 23.5 -52.5t65.5 -18.5z" />
    <glyph glyph-name="aacute.ss01" horiz-adv-x="571" 
d="M219 -12q-83 0 -132.5 38t-49.5 107t41.5 107.5t128.5 55.5l183 35q0 62 -29 92.5t-86 30.5q-51 0 -80 -22.5t-40 -66.5l-109 7q15 80 74.5 126t154.5 46q108 0 164.5 -57.5t56.5 -161.5v-325h-94l-4 118l10 -4q-7 -37 -34 -65t-67.5 -44.5t-87.5 -16.5zM236 72
q48 0 82 18.5t53 51.5t19 75v34l-156 -30q-48 -9 -67.5 -28.5t-19.5 -49.5q0 -34 23.5 -52.5t65.5 -18.5zM225 596l63 134h111l-90 -134h-84z" />
    <glyph glyph-name="abreve.ss01" horiz-adv-x="571" 
d="M219 -12q-83 0 -132.5 38t-49.5 107t41.5 107.5t128.5 55.5l183 35q0 62 -29 92.5t-86 30.5q-51 0 -80 -22.5t-40 -66.5l-109 7q15 80 74.5 126t154.5 46q108 0 164.5 -57.5t56.5 -161.5v-325h-94l-4 118l10 -4q-7 -37 -34 -65t-67.5 -44.5t-87.5 -16.5zM236 72
q48 0 82 18.5t53 51.5t19 75v34l-156 -30q-48 -9 -67.5 -28.5t-19.5 -49.5q0 -34 23.5 -52.5t65.5 -18.5zM272 599q-64 0 -103 36.5t-42 98.5h67q5 -34 25.5 -50t52.5 -16q34 0 54 16t23 50h68q-3 -62 -41.5 -98.5t-103.5 -36.5z" />
    <glyph glyph-name="uni01CE.ss01" horiz-adv-x="571" 
d="M219 -12q-83 0 -132.5 38t-49.5 107t41.5 107.5t128.5 55.5l183 35q0 62 -29 92.5t-86 30.5q-51 0 -80 -22.5t-40 -66.5l-109 7q15 80 74.5 126t154.5 46q108 0 164.5 -57.5t56.5 -161.5v-325h-94l-4 118l10 -4q-7 -37 -34 -65t-67.5 -44.5t-87.5 -16.5zM236 72
q48 0 82 18.5t53 51.5t19 75v34l-156 -30q-48 -9 -67.5 -28.5t-19.5 -49.5q0 -34 23.5 -52.5t65.5 -18.5zM125 735h81l76 -103h-20l76 103h81l-92 -139h-110z" />
    <glyph glyph-name="acircumflex.ss01" horiz-adv-x="571" 
d="M219 -12q-83 0 -132.5 38t-49.5 107t41.5 107.5t128.5 55.5l183 35q0 62 -29 92.5t-86 30.5q-51 0 -80 -22.5t-40 -66.5l-109 7q15 80 74.5 126t154.5 46q108 0 164.5 -57.5t56.5 -161.5v-325h-94l-4 118l10 -4q-7 -37 -34 -65t-67.5 -44.5t-87.5 -16.5zM236 72
q48 0 82 18.5t53 51.5t19 75v34l-156 -30q-48 -9 -67.5 -28.5t-19.5 -49.5q0 -34 23.5 -52.5t65.5 -18.5zM125 596l92 139h110l92 -139h-81l-76 103h20l-76 -103h-81z" />
    </font>
</defs>
</svg>
