<?xml version="1.0" standalone="no"?>
<!DOCTYPE svg PUBLIC "-//W3C//DTD SVG 1.1//EN" "http://www.w3.org/Graphics/SVG/1.1/DTD/svg11.dtd" >
<svg xmlns="http://www.w3.org/2000/svg" xmlns:xlink="http://www.w3.org/1999/xlink" version="1.1">
<metadata>
Created by FontForge 20201107 at Wed Oct 23 16:32:54 2024
 By 
Copyright 2024 The Geist Project Authors (https://github.com/vercel/geist-font.git)
</metadata>
<defs>
<font id="Geist-Bold" horiz-adv-x="634" >
  <font-face 
    font-family="Geist"
    font-weight="700"
    font-stretch="normal"
    units-per-em="1000"
    panose-1="0 0 0 0 0 0 0 0 0 0"
    ascent="800"
    descent="-200"
    x-height="536"
    cap-height="710"
    bbox="-200 -253 2338 958"
    underline-thickness="50"
    underline-position="-125"
    unicode-range="U+0020-FB02"
  />
<missing-glyph horiz-adv-x="600" 
d="M40 0v710h525v-710h-525zM73 36h459v638h-459v-638zM81 17l-21 29l464 647l21 -29zM524 17l-464 647l21 29l464 -647z" />
    <glyph glyph-name="fi" unicode="fi" horiz-adv-x="715" 
d="M124 0v543q0 80 43 123.5t134 43.5h114v-112h-82q-31 0 -45 -15.5t-14 -46.5v-536h-150zM46 404v112h361v-112h-361zM500 0v536h150v-536h-150zM497 602v120h155v-120h-155z" />
    <glyph glyph-name="fl" unicode="fl" horiz-adv-x="744" 
d="M124 0v543q0 80 43 123.5t134 43.5h114v-112h-82q-31 0 -45 -15.5t-14 -46.5v-536h-150zM46 404v112h361v-112h-361zM637 0q-66 0 -103 33t-37 107v570h150v-554q0 -24 11 -34t32 -10h36v-112h-89z" />
    <glyph glyph-name="f_f.liga" unicode="ff" horiz-adv-x="795" 
d="M124 0v543q0 80 43 123.5t134 43.5h114v-112h-82q-31 0 -45 -15.5t-14 -46.5v-536h-150zM46 404v112h361v-112h-361zM472 0v543q0 80 43 123.5t134 43.5h114v-112h-82q-31 0 -45 -15.5t-14 -46.5v-536h-150zM394 404v112h361v-112h-361z" />
    <glyph glyph-name="t_t.liga" unicode="tt" horiz-adv-x="811" 
d="M288 0q-83 0 -122 38.5t-39 122.5v501h150v-483q0 -39 16.5 -53t49.5 -14h75v-112h-130zM41 424v112h377v-112h-377zM654 0q-83 0 -122 38.5t-39 122.5v501h150v-483q0 -39 16.5 -53t49.5 -14h75v-112h-130zM407 424v112h377v-112h-377z" />
    <glyph glyph-name="hyphen_hyphen_hyphen_greater.liga" unicode="&#x2d;&#x2d;&#x2d;&#x3e;" horiz-adv-x="2400" 
d="M62 284v139h2165v-139h-2165zM1874 43l311 312l-310 310h153l310 -311l-311 -311h-153z" />
    <glyph glyph-name="hyphen_hyphen_greater.liga" unicode="&#x2d;&#x2d;&#x3e;" horiz-adv-x="1800" 
d="M1274 43l311 312l-310 310h153l310 -311l-311 -311h-153zM62 284v139h1594v-139h-1594z" />
    <glyph glyph-name="hyphen_greater.liga" unicode="&#x2d;&#x3e;" horiz-adv-x="1200" 
d="M674 43l311 312l-310 310h153l310 -311l-311 -311h-153zM62 284v139h994v-139h-994z" />
    <glyph glyph-name="less_hyphen.liga" unicode="&#x3c;&#x2d;" horiz-adv-x="1200" 
d="M526 43h-153l-311 311l310 311h153l-310 -310zM1138 284h-994v139h994v-139z" />
    <glyph glyph-name="less_hyphen_hyphen.liga" unicode="&#x3c;&#x2d;&#x2d;" horiz-adv-x="1800" 
d="M526 43h-153l-311 311l310 311h153l-310 -310zM1738 284h-1594v139h1594v-139z" />
    <glyph glyph-name="less_hyphen_hyphen_hyphen.liga" unicode="&#x3c;&#x2d;&#x2d;&#x2d;" horiz-adv-x="2400" 
d="M2338 284h-2165v139h2165v-139zM526 43h-153l-311 311l310 311h153l-310 -310z" />
    <glyph glyph-name="less_hyphen_greater.liga" unicode="&#x3c;&#x2d;&#x3e;" horiz-adv-x="1800" 
d="M1274 43l311 312l-310 310h153l310 -311l-311 -311h-153zM373 43l-311 311l310 311h153l-310 -310l311 -312h-153zM155 284v139h1477v-139h-1477z" />
    <glyph glyph-name=".notdef" horiz-adv-x="600" 
d="M40 0v710h525v-710h-525zM73 36h459v638h-459v-638zM81 17l-21 29l464 647l21 -29zM524 17l-464 647l21 29l464 -647z" />
    <glyph glyph-name=".null" horiz-adv-x="0" 
 />
    <glyph glyph-name="nonmarkingreturn" horiz-adv-x="333" 
 />
    <glyph glyph-name="space" unicode=" " horiz-adv-x="228" 
 />
    <glyph glyph-name="exclam" unicode="!" horiz-adv-x="257" 
d="M80 227q-5 34 -11 82t-10 97.5t-4 89.5v214h151v-214q0 -40 -4 -89.5t-9.5 -97.5t-10.5 -82h-102zM47 0v153h163v-153h-163z" />
    <glyph glyph-name="quotedbl" unicode="&#x22;" horiz-adv-x="390" 
d="M63 431l-21 195v84h119l-7 -279h-91zM236 431l-7 279h119v-84l-21 -195h-91z" />
    <glyph glyph-name="numbersign" unicode="#" horiz-adv-x="589" 
d="M290 0l109 710h137l-109 -710h-137zM3 163l17 120h526l-17 -120h-526zM50 0l110 710h137l-110 -710h-137zM41 421l17 119h525l-17 -119h-525z" />
    <glyph glyph-name="dollar" unicode="$" horiz-adv-x="670" 
d="M299 -90v890h82v-890h-82zM349 -11q-90 0 -154.5 30.5t-101 85.5t-41.5 128l150 8q6 -41 24 -70t48.5 -43.5t76.5 -14.5q37 0 63 8.5t39.5 26.5t13.5 45q0 24 -11.5 42.5t-45 34t-98.5 29.5q-89 20 -143 45.5t-78.5 64.5t-24.5 98q0 62 31 109t89.5 73.5t139.5 26.5
q86 0 146 -30t93.5 -83t41.5 -123l-149 -6q-4 35 -20.5 62t-45 42t-68.5 15q-50 0 -79 -22.5t-29 -58.5q0 -26 12.5 -43.5t44 -30t87.5 -24.5q97 -19 153.5 -49t80.5 -71t24 -94q0 -65 -33 -112.5t-93.5 -73t-142.5 -25.5z" />
    <glyph glyph-name="percent" unicode="%" horiz-adv-x="825" 
d="M203 366q-72 0 -119 43.5t-47 132.5q0 90 47 133t119 43t118.5 -43t46.5 -133q0 -89 -46.5 -132.5t-118.5 -43.5zM203 442q32 0 48 25t16 75t-16 75t-48 25q-31 0 -47.5 -25t-16.5 -75t16.5 -75t47.5 -25zM623 -8q-72 0 -119 43.5t-47 132.5q0 90 47 133t119 43t119 -43
t47 -133q0 -89 -47 -132.5t-119 -43.5zM623 68q32 0 48 25t16 75t-16 75t-48 25q-31 0 -47.5 -25t-16.5 -75t16.5 -75t47.5 -25zM131 0l472 710h92l-472 -710h-92z" />
    <glyph glyph-name="ampersand" unicode="&#x26;" horiz-adv-x="709" 
d="M290 -16q-124 0 -189 49.5t-65 141.5q0 46 14.5 82t47.5 68t86 64q-23 25 -39.5 49.5t-25.5 50t-9 56.5q0 83 55.5 132t159.5 49q71 0 119 -22t72 -60.5t24 -87.5q0 -63 -37.5 -106.5t-115.5 -87.5l112 -140q25 37 26 106l152 -15q-4 -57 -25 -110t-55 -91l97 -112h-177
l-26 31q-32 -21 -84.5 -34t-116.5 -13zM302 114q33 0 55.5 7t35.5 17l-130 160q-37 -24 -54 -49t-17 -57q0 -35 28.5 -56.5t81.5 -21.5zM310 450q27 15 43.5 29.5t24.5 29.5t8 34q0 26 -15.5 40.5t-42.5 14.5q-30 0 -46.5 -16t-16.5 -43q0 -14 4 -27.5t14.5 -28.5t26.5 -33z
" />
    <glyph glyph-name="quotesingle" unicode="'" horiz-adv-x="203" 
d="M57 431l-15 195v84h119v-84l-15 -195h-89z" />
    <glyph glyph-name="parenleft" unicode="(" horiz-adv-x="323" 
d="M177 -110q-135 213 -135 430q0 218 135 430h134q-121 -215 -121 -430q0 -107 30.5 -214.5t90.5 -215.5h-134z" />
    <glyph glyph-name="parenright" unicode=")" horiz-adv-x="323" 
d="M145 -110h-133q61 108 91 215.5t30 214.5q0 215 -121 430h133q136 -212 136 -430q0 -217 -136 -430z" />
    <glyph glyph-name="asterisk" unicode="*" horiz-adv-x="422" 
d="M160 363l-78 45l57 87l-102 -2v100l102 -1l-57 87l78 44l51 -90l52 90l78 -44l-58 -87l102 1v-100l-102 2l58 -87l-78 -45l-52 91z" />
    <glyph glyph-name="plus" unicode="+" horiz-adv-x="570" 
d="M224 42v490h122v-490h-122zM40 226v121h490v-121h-490z" />
    <glyph glyph-name="comma" unicode="," horiz-adv-x="236" 
d="M48 -158l54 158h-65v153h163v-137l-70 -174h-82z" />
    <glyph glyph-name="hyphen" unicode="-" horiz-adv-x="417" 
d="M37 230v123h343v-123h-343z" />
    <glyph glyph-name="period" unicode="." horiz-adv-x="236" 
d="M37 0v153h163v-153h-163z" />
    <glyph glyph-name="slash" unicode="/" horiz-adv-x="522" 
d="M32 -110l296 860h148l-296 -860h-148z" />
    <glyph glyph-name="zero" unicode="0" horiz-adv-x="699" 
d="M350 -16q-94 0 -162 44.5t-104.5 127.5t-36.5 198t37 198.5t104.5 128.5t161.5 45q93 0 160.5 -45t104.5 -128.5t37 -198.5q0 -114 -36.5 -197t-104.5 -128t-161 -45zM350 112q70 0 107.5 61t37.5 181q0 81 -16.5 135t-49 81.5t-79.5 27.5q-48 0 -80.5 -27.5t-49 -81.5
t-16.5 -135q0 -120 37.5 -181t108.5 -61z" />
    <glyph glyph-name="one" unicode="1" horiz-adv-x="449" 
d="M192 0v467h-154v111h61q44 0 71.5 12.5t40 41t12.5 78.5h121v-710h-152z" />
    <glyph glyph-name="two" unicode="2" horiz-adv-x="653" 
d="M58 0q0 91 24.5 158t80 120t147.5 101q49 25 77.5 44.5t40.5 39.5t12 47q0 26 -11.5 45.5t-33.5 31t-55 11.5q-54 0 -85.5 -31.5t-39.5 -91.5l-156 9q10 113 82.5 177.5t196.5 64.5q82 0 139.5 -27t88 -75t30.5 -112q0 -56 -18.5 -94t-59.5 -70t-108 -68
q-86 -46 -127 -84.5t-44 -67.5h357v-128h-538z" />
    <glyph glyph-name="three" unicode="3" horiz-adv-x="650" 
d="M324 -16q-132 0 -203.5 60.5t-76.5 163.5l155 6q5 -53 37.5 -77.5t87.5 -24.5q36 0 64 10.5t44.5 32.5t16.5 55q0 51 -35 76.5t-95 25.5h-63v113h63q46 0 76.5 19.5t30.5 66.5q0 40 -25 63.5t-79 23.5t-81 -22t-33 -57l-153 8q10 90 79.5 144.5t187.5 54.5q84 0 142 -24
t88 -69t30 -106q0 -63 -41.5 -104t-119.5 -56v17q89 -13 137 -61t48 -124q0 -67 -35 -115.5t-98 -74t-149 -25.5z" />
    <glyph glyph-name="four" unicode="4" horiz-adv-x="656" 
d="M377 0v135h-353v121l324 454h181v-447h83v-128h-83v-135h-152zM185 263h192v260z" />
    <glyph glyph-name="five" unicode="5" horiz-adv-x="671" 
d="M334 -16q-87 0 -147 26t-93 74t-38 112l154 7q9 -46 40.5 -68.5t83.5 -22.5q58 0 91.5 33t33.5 91q0 38 -15.5 66t-43.5 44t-67 16q-43 0 -74 -19t-43 -48h-152l49 415h453v-128h-324l-26 -207l-17 15q17 26 42.5 44.5t59.5 29t75 10.5q74 0 127.5 -31t82.5 -85t29 -122
q0 -77 -35 -134t-98 -87.5t-148 -30.5z" />
    <glyph glyph-name="six" unicode="6" horiz-adv-x="661" 
d="M332 -16q-91 0 -152.5 39t-92.5 112.5t-31 177.5q0 89 18 164.5t54.5 131t93.5 86.5t134 31q104 0 164.5 -50t80.5 -136l-141 -10q-12 33 -35 52t-69 19q-70 0 -110 -61t-45 -188l-21 4q11 29 35 54t61.5 40.5t87.5 15.5q72 0 126.5 -29t84 -81t29.5 -122
q0 -80 -34 -135.5t-95 -85t-143 -29.5zM331 105q55 0 88.5 34.5t33.5 92.5q0 38 -14.5 66t-41 44t-61.5 16q-37 0 -66 -16t-45 -44t-16 -66q0 -37 15 -66t42.5 -45t64.5 -16z" />
    <glyph glyph-name="seven" unicode="7" horiz-adv-x="544" 
d="M164 0q0 110 28 213t79 196t119 173h-370v128h524v-119q-74 -84 -124.5 -172.5t-76 -190.5t-25.5 -228h-154z" />
    <glyph glyph-name="eight" unicode="8" horiz-adv-x="668" 
d="M334 -16q-91 0 -158 23.5t-103.5 70.5t-36.5 115q0 80 50 131.5t133 65.5l2 -20q-69 13 -110 55t-41 106q0 58 31 102t89.5 68.5t143.5 24.5q84 0 143 -24.5t89.5 -68.5t30.5 -102q0 -64 -40.5 -105.5t-110.5 -55.5l2 20q84 -15 134 -66t50 -131q0 -68 -36.5 -115
t-103.5 -70.5t-158 -23.5zM334 112q64 0 102.5 27.5t38.5 76.5t-36.5 78.5t-104.5 29.5t-105 -29.5t-37 -78.5t39 -76.5t103 -27.5zM334 431q51 0 79.5 20.5t28.5 63.5q0 38 -27.5 61t-80.5 23t-81 -23t-28 -61q0 -43 29 -63.5t80 -20.5z" />
    <glyph glyph-name="nine" unicode="9" horiz-adv-x="665" 
d="M314 -16q-98 0 -159 45.5t-87 130.5l146 9q11 -29 36 -44.5t64 -15.5q75 0 110.5 55t35.5 183l20 -9q-27 -53 -73.5 -80t-114.5 -27q-70 0 -123 29.5t-83 83.5t-30 125q0 79 33 136.5t93 89t140 31.5q97 0 160.5 -40.5t95 -117.5t31.5 -188q0 -93 -18 -166.5
t-53.5 -124.5t-91 -78t-132.5 -27zM325 340q38 0 65.5 16t42.5 45t15 70q0 40 -14.5 70.5t-41.5 47t-65 16.5q-36 0 -63 -16.5t-41.5 -46.5t-14.5 -70q0 -41 15 -70t41 -45.5t61 -16.5z" />
    <glyph glyph-name="colon" unicode=":" horiz-adv-x="311" 
d="M74 0v153h163v-153h-163zM74 356v153h163v-153h-163z" />
    <glyph glyph-name="semicolon" unicode=";" horiz-adv-x="311" 
d="M74 356v153h163v-153h-163zM85 -158l54 158h-65v153h163v-137l-70 -174h-82z" />
    <glyph glyph-name="less" unicode="&#x3c;" horiz-adv-x="550" 
d="M500 22l-460 195v150l460 195v-130l-399 -168v56l399 -168v-130z" />
    <glyph glyph-name="equal" unicode="=" horiz-adv-x="552" 
d="M40 347v122h472v-122h-472zM40 117v121h472v-121h-472z" />
    <glyph glyph-name="greater" unicode="&#x3e;" horiz-adv-x="550" 
d="M50 22v130l399 168v-56l-399 168v130l460 -195v-150z" />
    <glyph glyph-name="question" unicode="?" horiz-adv-x="591" 
d="M217 224q0 81 22.5 123.5t75.5 68.5q37 19 55.5 33.5t24.5 30.5t6 38q0 37 -24.5 60.5t-69.5 23.5q-51 0 -79.5 -27.5t-34.5 -81.5l-156 8q6 65 39 116t91 80t140 29q81 0 136 -27t83.5 -74t28.5 -107q0 -43 -12.5 -73t-39.5 -54t-72 -49q-36 -22 -50.5 -46t-14.5 -72
h-149zM208 0v153h163v-153h-163z" />
    <glyph glyph-name="at" unicode="@" horiz-adv-x="962" 
d="M681 -73q-60 -24 -119.5 -36t-123.5 -12q-125 0 -213.5 43t-135.5 125.5t-47 198.5q0 104 34 189t96.5 147t149 95t192.5 33q122 0 213.5 -44t142 -123.5t50.5 -186.5q0 -85 -27 -147.5t-74.5 -96.5t-110.5 -34q-58 0 -92.5 31t-38.5 81l26 4q-9 -33 -36 -61t-62.5 -44
t-72.5 -16q-57 0 -98 23t-62 65t-21 99q0 70 26 124.5t72.5 86.5t107.5 32q56 0 96 -26t48 -67l-20 -1l7 87h113l-18 -197q-2 -23 -4 -48t-2 -41q0 -20 12.5 -31.5t34.5 -11.5q47 0 74.5 46.5t27.5 130.5q0 92 -35.5 154t-105.5 93t-176 31q-83 0 -151 -26.5t-118 -75.5
t-76.5 -117t-26.5 -151q0 -90 35.5 -153.5t103.5 -97.5t165 -34q60 0 112 10t105 33zM463 172q34 0 57.5 18t36 48t12.5 66q0 30 -9 52.5t-28 35t-49 12.5q-32 0 -55 -17.5t-35.5 -48t-12.5 -68.5q0 -44 20 -71t63 -27z" />
    <glyph glyph-name="A" unicode="A" horiz-adv-x="730" 
d="M19 0l256 710h180l256 -710h-158l-52 151h-273l-52 -151h-157zM271 276h188l-94 274z" />
    <glyph glyph-name="B" unicode="B" horiz-adv-x="703" 
d="M74 0v710h276q132 0 202 -46.5t70 -146.5q0 -44 -18 -76.5t-52.5 -51.5t-83.5 -23v2q89 -6 136.5 -51.5t47.5 -120.5q0 -99 -69.5 -147.5t-198.5 -48.5h-310zM226 124h151q55 0 88.5 22.5t33.5 67.5t-33.5 68.5t-88.5 23.5h-151v-182zM226 416h120q56 0 89.5 22t33.5 63
q0 44 -32.5 64.5t-90.5 20.5h-120v-170z" />
    <glyph glyph-name="C" unicode="C" horiz-adv-x="734" 
d="M375 -16q-97 0 -172.5 44t-118 127t-42.5 199q0 113 41 196.5t117 129.5t178 46q139 0 216.5 -68.5t99.5 -195.5l-158 -6q-12 67 -52 104.5t-106 37.5q-57 0 -97 -30t-61 -85t-21 -129q0 -75 21.5 -129.5t61.5 -83.5t95 -29q72 0 111.5 40.5t49.5 112.5l159 -6
q-14 -87 -55 -148t-107.5 -94t-159.5 -33z" />
    <glyph glyph-name="D" unicode="D" horiz-adv-x="720" 
d="M74 0v710h245q173 0 266 -92.5t93 -263.5q0 -170 -91.5 -262t-261.5 -92h-251zM226 128h93q103 0 152.5 55.5t49.5 171.5t-49.5 171.5t-152.5 55.5h-93v-454z" />
    <glyph glyph-name="E" unicode="E" horiz-adv-x="622" 
d="M74 0v710h494v-128h-342v-163h330v-126h-330v-165h350v-128h-502z" />
    <glyph glyph-name="F" unicode="F" horiz-adv-x="604" 
d="M74 0v710h490v-128h-422l84 87v-325l-84 66h404v-126h-404l84 66v-350h-152z" />
    <glyph glyph-name="G" unicode="G" horiz-adv-x="738" 
d="M370 -16q-103 0 -176 47t-112.5 130.5t-39.5 192.5q0 107 40 191t115.5 132.5t181.5 48.5q92 0 155.5 -30.5t101.5 -86.5t53 -132l-157 -7q-11 59 -46.5 93.5t-105.5 34.5q-61 0 -101.5 -32t-60 -87t-19.5 -125q0 -71 19.5 -125.5t60 -85.5t104.5 -31q47 0 81.5 19t54 52
t23.5 75h-162v111h311v-369h-94l-8 152l18 -8q-10 -47 -44 -83t-83.5 -56.5t-109.5 -20.5z" />
    <glyph glyph-name="H" unicode="H" horiz-adv-x="721" 
d="M74 0v710h152v-337l-67 48h404l-68 -48v337h152v-710h-152v341l68 -48h-404l67 48v-341h-152z" />
    <glyph glyph-name="I" unicode="I" horiz-adv-x="300" 
d="M74 0v710h152v-710h-152z" />
    <glyph glyph-name="J" unicode="J" horiz-adv-x="627" 
d="M309 -16q-83 0 -140.5 35t-88 95.5t-31.5 138.5l153 7q1 -76 29 -112t78 -36q51 0 79 35t28 108v455h152v-455q0 -83 -32.5 -144t-90.5 -94t-136 -33z" />
    <glyph glyph-name="K" unicode="K" horiz-adv-x="689" 
d="M74 0v710h152v-310l258 310h177l-261 -313l277 -397h-173l-204 295l-74 -86v-209h-152z" />
    <glyph glyph-name="L" unicode="L" horiz-adv-x="589" 
d="M74 0v710h152v-669l-84 87h411v-128h-479z" />
    <glyph glyph-name="M" unicode="M" horiz-adv-x="915" 
d="M74 0v710h203l181 -517l180 517h203v-710h-152v460l-167 -458h-130l-166 458v-460h-152z" />
    <glyph glyph-name="N" unicode="N" horiz-adv-x="750" 
d="M74 0v710h168l282 -490v490h152v-710h-170l-280 473v-473h-152z" />
    <glyph glyph-name="O" unicode="O" horiz-adv-x="776" 
d="M388 -16q-108 0 -185.5 45t-119 128t-41.5 197t41.5 197.5t119 129t185.5 45.5t185.5 -45.5t119 -129t41.5 -197.5t-41.5 -197t-119 -128t-185.5 -45zM387 112q60 0 102.5 28.5t65 82.5t22.5 131t-22.5 131.5t-65 83.5t-102.5 29q-59 0 -101 -29t-64.5 -83.5
t-22.5 -131.5t22.5 -131t65 -82.5t100.5 -28.5z" />
    <glyph glyph-name="P" unicode="P" horiz-adv-x="672" 
d="M74 0v710h284q128 0 200.5 -62t72.5 -170q0 -71 -32.5 -123.5t-94 -81t-146.5 -28.5h-132v-245h-152zM226 373h123q60 0 93 26.5t33 78.5q0 51 -32.5 77.5t-93.5 26.5h-123v-209z" />
    <glyph glyph-name="Q" unicode="Q" horiz-adv-x="769" 
d="M567 -62l-55 69q-23 -11 -55.5 -17t-71.5 -6q-105 0 -182 47.5t-119 131t-42 191.5q0 106 39.5 190t116 133t187.5 49t187.5 -49t115.5 -133t39 -190q0 -99 -33.5 -174t-95.5 -125l94 -117h-125zM385 112q13 0 24 1.5t21 5.5l-99 121h126l52 -69q30 28 45.5 72.5
t15.5 110.5q0 65 -19.5 120.5t-60.5 89.5t-105 34q-65 0 -106 -34t-60.5 -89.5t-19.5 -120.5q0 -64 19.5 -119.5t61 -89t105.5 -33.5z" />
    <glyph glyph-name="R" unicode="R" horiz-adv-x="697" 
d="M74 0v710h311q78 0 135.5 -26t88.5 -73.5t31 -112.5q0 -49 -20.5 -87t-56 -62t-81.5 -30l-3 9q71 0 108 -30.5t42 -93.5l18 -204h-155l-13 180q-3 41 -25.5 60.5t-76.5 19.5h-151v-260h-152zM226 387h142q55 0 85.5 25.5t30.5 72.5q0 48 -31 72.5t-90 24.5h-137v-195z
" />
    <glyph glyph-name="S" unicode="S" horiz-adv-x="681" 
d="M355 -16q-92 0 -158 31t-103 87t-42 132l153 7q6 -42 24.5 -71.5t50 -44.5t77.5 -15q38 0 64.5 9t40.5 27.5t14 45.5q0 25 -12 43.5t-46 34t-100 30.5q-91 21 -146.5 47t-80.5 65.5t-25 99.5q0 64 31.5 112t91.5 75t143 27q88 0 149 -31t95.5 -85t41.5 -124l-152 -8
q-3 37 -20 64.5t-46 42.5t-70 15q-52 0 -81.5 -23t-29.5 -60q0 -26 13.5 -43.5t45 -30.5t89.5 -25q99 -20 156.5 -50.5t81.5 -72.5t24 -96q0 -66 -33.5 -114.5t-95 -74.5t-145.5 -26z" />
    <glyph glyph-name="T" unicode="T" horiz-adv-x="599" 
d="M223 0v582h-212v128h578v-128h-213v-582h-153z" />
    <glyph glyph-name="U" unicode="U" horiz-adv-x="703" 
d="M352 -16q-90 0 -155.5 33t-101.5 94.5t-36 144.5v455h152v-455q0 -69 36.5 -106.5t104.5 -37.5t104 37.5t36 106.5v455h152v-455q0 -83 -35.5 -144.5t-101.5 -94.5t-155 -33z" />
    <glyph glyph-name="V" unicode="V" horiz-adv-x="730" 
d="M275 0l-256 710h157l189 -539l189 539h157l-257 -710h-179z" />
    <glyph glyph-name="W" unicode="W" horiz-adv-x="1015" 
d="M229 0l-192 710h159l122 -500l123 500h133l124 -500l121 500h159l-191 -710h-164l-116 454l-116 -454h-162z" />
    <glyph glyph-name="X" unicode="X" horiz-adv-x="688" 
d="M12 0l241 356l-239 354h176l155 -239l151 239h177l-239 -352l242 -358h-177l-156 243l-154 -243h-177z" />
    <glyph glyph-name="Y" unicode="Y" horiz-adv-x="631" 
d="M240 0v276l-247 434h168l155 -286l154 286h168l-246 -434v-276h-152z" />
    <glyph glyph-name="Z" unicode="Z" horiz-adv-x="594" 
d="M27 0v124l338 458h-322v128h511v-124l-345 -458h358v-128h-540z" />
    <glyph glyph-name="bracketleft" unicode="[" horiz-adv-x="390" 
d="M378 -110h-304v860h304v-118h-160v-624h160v-118z" />
    <glyph glyph-name="backslash" unicode="\" horiz-adv-x="501" 
d="M473 -110h-149l-296 860h148z" />
    <glyph glyph-name="bracketright" unicode="]" horiz-adv-x="390" 
d="M12 -110v118h160v624h-160v118h304v-860h-304z" />
    <glyph glyph-name="asciicircum" unicode="^" horiz-adv-x="461" 
d="M40 383l120 290h141l120 -290h-108l-97 228h29l-96 -228h-109z" />
    <glyph glyph-name="underscore" unicode="_" horiz-adv-x="561" 
d="M37 -121v121h487v-121h-487z" />
    <glyph glyph-name="grave" unicode="`" horiz-adv-x="278" 
d="M127 598l-90 147h145l59 -147h-114z" />
    <glyph glyph-name="a" unicode="a" horiz-adv-x="594" 
d="M225 -12q-83 0 -135.5 38.5t-52.5 107.5q0 71 44.5 109.5t131.5 56.5l173 34q0 52 -23.5 78.5t-67.5 26.5q-43 0 -67 -19.5t-31 -57.5l-151 7q15 88 79.5 133.5t169.5 45.5q120 0 180.5 -57t60.5 -167v-183q0 -23 7.5 -30.5t22.5 -7.5h15v-103q-7 -2 -22.5 -4t-30.5 -2
q-32 0 -59.5 11t-44.5 37.5t-17 75.5l13 -10q-10 -36 -35.5 -63t-66 -42t-93.5 -15zM261 91q37 0 65 14.5t44 42.5t16 66v26l-122 -26q-36 -7 -54.5 -23.5t-18.5 -42.5q0 -27 18 -42t52 -15z" />
    <glyph glyph-name="b" unicode="b" 
d="M374 -12q-56 0 -97.5 24t-64.5 67l-3 -79h-143v710h150v-250q21 37 62 62.5t96 25.5q68 0 118 -34.5t77.5 -97.5t27.5 -148t-27.5 -148t-77.5 -97.5t-118 -34.5zM332 103q50 0 80.5 43.5t30.5 121.5t-30 121.5t-80 43.5q-37 0 -63.5 -19.5t-40 -56.5t-13.5 -89
q0 -51 13.5 -88t40 -57t62.5 -20z" />
    <glyph glyph-name="c" unicode="c" horiz-adv-x="598" 
d="M309 -12q-82 0 -143 34.5t-95 97.5t-34 148t34 147.5t95 97.5t143 35q71 0 127.5 -25t91.5 -72t43 -113l-155 -7q-7 50 -35.5 75.5t-71.5 25.5q-56 0 -87 -43t-31 -121t31 -121.5t87 -43.5q43 0 72 26.5t35 80.5l155 -6q-7 -66 -41.5 -114.5t-91 -75t-129.5 -26.5z" />
    <glyph glyph-name="d" unicode="d" 
d="M257 -12q-68 0 -117.5 34.5t-76 97t-26.5 148.5t27 148.5t76.5 97t116.5 34.5q57 0 98.5 -23.5t62.5 -64.5v250h150v-710h-143l-3 79q-22 -43 -65.5 -67t-99.5 -24zM306 103q36 0 61 19t38 55.5t13 90.5q0 55 -13 91.5t-38 55t-61 18.5q-53 0 -84 -44.5t-31 -120.5
q0 -75 31.5 -120t83.5 -45z" />
    <glyph glyph-name="e" unicode="e" horiz-adv-x="605" 
d="M307 -12q-82 0 -142.5 34.5t-94 97.5t-33.5 148t33.5 147.5t93.5 97.5t142 35q80 0 139 -35t91.5 -100t32.5 -155v-30h-377q3 -64 34.5 -95t83.5 -31q38 0 63.5 16t36.5 49l151 -9q-21 -80 -89 -125t-165 -45zM192 320h223q-3 59 -32.5 88t-76.5 29t-77.5 -30.5
t-36.5 -86.5z" />
    <glyph glyph-name="f" unicode="f" horiz-adv-x="447" 
d="M124 0v543q0 80 43 123.5t134 43.5h114v-112h-82q-31 0 -45 -15.5t-14 -46.5v-536h-150zM46 404v112h361v-112h-361z" />
    <glyph glyph-name="g" unicode="g" 
d="M306 -162q-77 0 -128.5 19t-82 53t-42.5 78l154 11q8 -26 30.5 -41t68.5 -15q54 0 82.5 25.5t28.5 81.5v57q-19 -37 -61 -59.5t-94 -22.5q-66 0 -117 32.5t-79.5 91t-28.5 137.5q0 77 28.5 136t79 92.5t115.5 33.5q59 0 99.5 -26t61.5 -69v83h147v-483q0 -72 -33 -119.5
t-92 -71.5t-137 -24zM305 136q52 0 82.5 40t30.5 111q0 47 -13.5 81t-39 52t-60.5 18q-54 0 -84 -41t-30 -110q0 -70 31 -110.5t83 -40.5z" />
    <glyph glyph-name="h" unicode="h" horiz-adv-x="611" 
d="M66 0v710h150v-299h-20q8 47 31.5 77t59 45t77.5 15q60 0 100 -26t60.5 -72t20.5 -105v-345h-150v309q0 60 -18.5 90t-62.5 30q-46 0 -72 -31t-26 -93v-305h-150z" />
    <glyph glyph-name="i" unicode="i" horiz-adv-x="281" 
d="M66 0v536h150v-536h-150zM63 602v120h155v-120h-155z" />
    <glyph glyph-name="j" unicode="j" horiz-adv-x="331" 
d="M-3 -150v112h59q30 0 44.5 12t14.5 48v514h151v-518q0 -90 -40.5 -129t-138.5 -39h-90zM113 602v120h155v-120h-155z" />
    <glyph glyph-name="k" unicode="k" horiz-adv-x="647" 
d="M66 0v710h150v-394l199 220h180l-208 -221l214 -315h-164l-147 230l-74 -79v-151h-150z" />
    <glyph glyph-name="l" unicode="l" horiz-adv-x="313" 
d="M206 0q-66 0 -103 33t-37 107v570h150v-554q0 -24 11 -34t32 -10h36v-112h-89z" />
    <glyph glyph-name="m" unicode="m" horiz-adv-x="900" 
d="M66 0v536h135l5 -129l-14 6q11 43 33.5 73t54.5 46t70 16q67 0 108.5 -39t53.5 -105l-19 -1q9 47 31.5 79.5t55.5 49t74 16.5q56 0 96 -23t62 -68.5t22 -111.5v-345h-150v303q0 63 -19 94.5t-62 31.5q-27 0 -46 -15t-29.5 -43.5t-10.5 -69.5v-301h-135v301q0 62 -18 95
t-62 33q-27 0 -46.5 -15t-29.5 -44t-10 -69v-301h-150z" />
    <glyph glyph-name="n" unicode="n" horiz-adv-x="611" 
d="M66 0v536h135l6 -157l-19 5q8 60 32.5 96t61.5 52t81 16q58 0 98.5 -25t62 -70.5t21.5 -107.5v-345h-150v295q0 43 -7 73t-25 45.5t-50 15.5q-47 0 -72 -34.5t-25 -99.5v-295h-150z" />
    <glyph glyph-name="o" unicode="o" horiz-adv-x="618" 
d="M309 -12q-82 0 -143 34.5t-95 97.5t-34 148t34 147.5t95 97.5t143 35t143 -35t95 -97.5t34 -147.5t-34 -148t-95 -97.5t-143 -34.5zM309 103q56 0 87 43.5t31 121.5t-31 121.5t-87 43.5t-87 -43.5t-31 -121.5t31 -121.5t87 -43.5z" />
    <glyph glyph-name="p" unicode="p" 
d="M66 -150v686h144l3 -113l-12 5q20 58 65 89t105 31q75 0 125 -37t75.5 -100.5t25.5 -142.5q0 -78 -25.5 -142t-76 -101t-125.5 -37q-39 0 -73 14.5t-58.5 40.5t-35.5 62l13 8v-263h-150zM329 103q53 0 83.5 44t30.5 121t-30.5 121t-83.5 44q-35 0 -60.5 -18.5t-39 -55.5
t-13.5 -91t13.5 -91t39 -55.5t60.5 -18.5z" />
    <glyph glyph-name="q" unicode="q" 
d="M568 -150h-150v263l13 -8q-11 -36 -35.5 -62t-58.5 -40.5t-73 -14.5q-75 0 -125.5 37t-76 101t-25.5 142q0 79 25.5 142.5t75.5 100.5t125 37q61 0 106 -31t64 -89l-12 -5l3 113h144v-686zM305 103q36 0 61 18.5t38.5 55.5t13.5 91t-13.5 91t-39 55.5t-60.5 18.5
q-53 0 -83.5 -44t-30.5 -121t30.5 -121t83.5 -44z" />
    <glyph glyph-name="r" unicode="r" horiz-adv-x="425" 
d="M66 0v536h142l5 -156l-11 3q13 81 46 117t91 36h49v-124h-49q-42 0 -69 -11t-40.5 -35t-13.5 -65v-301h-150z" />
    <glyph glyph-name="s" unicode="s" horiz-adv-x="571" 
d="M295 -12q-83 0 -139 23.5t-85.5 64t-33.5 93.5l152 5q7 -38 32 -59t74 -21q40 0 62.5 13t22.5 40q0 17 -8 28.5t-31.5 20t-69.5 15.5q-85 15 -133 35t-68 52t-20 78q0 77 59.5 124.5t178.5 47.5q76 0 127.5 -24t80 -65.5t35.5 -94.5l-151 -6q-3 26 -15.5 44.5t-31.5 29
t-46 10.5q-40 0 -61.5 -16.5t-21.5 -43.5q0 -20 9.5 -32.5t31.5 -20.5t59 -13q86 -12 136.5 -33.5t72.5 -53.5t22 -79q0 -52 -30 -88t-83.5 -55t-126.5 -19z" />
    <glyph glyph-name="t" unicode="t" horiz-adv-x="445" 
d="M288 0q-83 0 -122 38.5t-39 122.5v501h150v-483q0 -39 16.5 -53t49.5 -14h75v-112h-130zM41 424v112h377v-112h-377z" />
    <glyph glyph-name="u" unicode="u" horiz-adv-x="607" 
d="M242 -12q-83 0 -129.5 53.5t-46.5 149.5v345h150v-310q0 -62 19 -90.5t60 -28.5q46 0 71.5 31.5t25.5 94.5v303h150v-536h-137l-4 154l19 -4q-12 -80 -57 -121t-121 -41z" />
    <glyph glyph-name="v" unicode="v" horiz-adv-x="609" 
d="M217 0l-196 536h157l127 -385l126 385h157l-197 -536h-174z" />
    <glyph glyph-name="w" unicode="w" horiz-adv-x="849" 
d="M180 0l-159 536h151l92 -363l99 363h122l99 -363l93 363h151l-159 -536h-146l-99 335l-99 -335h-145z" />
    <glyph glyph-name="x" unicode="x" horiz-adv-x="650" 
d="M46 0l191 272l-186 264h159l115 -172l111 172h163l-185 -265l190 -271h-159l-118 182l-119 -182h-162z" />
    <glyph glyph-name="y" unicode="y" horiz-adv-x="586" 
d="M110 -150v112h71q26 0 38.5 7.5t19.5 26.5l11 31h-41l-188 509h153l123 -369l115 369h153l-206 -587q-18 -53 -52 -76t-95 -23h-102z" />
    <glyph glyph-name="z" unicode="z" horiz-adv-x="595" 
d="M56 0v118l295 306h-283v112h463v-118l-300 -306h308v-112h-483z" />
    <glyph glyph-name="braceleft" unicode="{" horiz-adv-x="408" 
d="M333 -125q-95 0 -148 53t-53 136v83q0 42 -9.5 66t-29.5 34.5t-51 10.5v118q31 0 51 10t29.5 34.5t9.5 66.5v83q0 83 53 135.5t148 52.5h63v-129q-63 3 -92 -17t-29 -66v-69q0 -71 -34.5 -111t-80.5 -46v-6q47 -5 81 -45.5t34 -111.5v-70q0 -46 29 -67.5t92 -19.5v-125
h-63z" />
    <glyph glyph-name="bar" unicode="|" horiz-adv-x="294" 
d="M74 -110v860h146v-860h-146z" />
    <glyph glyph-name="braceright" unicode="}" horiz-adv-x="408" 
d="M75 -125h-63v125q63 -2 91.5 19.5t28.5 67.5v70q0 71 34.5 111.5t81.5 45.5v6q-46 6 -81 46t-35 111v69q0 46 -28.5 66t-91.5 17v129h63q96 0 148 -52.5t52 -135.5v-83q0 -42 9.5 -66.5t29.5 -34.5t52 -10v-118q-32 0 -52 -10.5t-29.5 -34.5t-9.5 -66v-83q0 -83 -52 -136
t-148 -53z" />
    <glyph glyph-name="asciitilde" unicode="~" horiz-adv-x="523" 
d="M344 240q-31 0 -53 10.5t-46 36.5q-16 18 -25.5 26.5t-16 11t-15.5 2.5q-20 0 -30.5 -20.5t-10.5 -61.5h-107q0 84 37.5 132.5t102.5 48.5q32 0 54.5 -12t45.5 -37q21 -24 31.5 -31t24.5 -7q21 0 30.5 20.5t9.5 61.5h107q0 -84 -37.5 -132.5t-101.5 -48.5z" />
    <glyph glyph-name="uni00A0" unicode="&#xa0;" horiz-adv-x="228" 
 />
    <glyph glyph-name="exclamdown" unicode="&#xa1;" horiz-adv-x="257" 
d="M55 -162v214q0 40 4 89.5t10 97.5t11 82h102q5 -34 10.5 -82t9.5 -97.5t4 -89.5v-214h-151zM47 548h163v-153h-163v153z" />
    <glyph glyph-name="cent" unicode="&#xa2;" horiz-adv-x="598" 
d="M237 -12l63 738h76l-63 -738h-76zM309 76q-82 0 -143 35t-95 98t-34 147q0 85 34 148t95 97.5t143 34.5q71 0 127.5 -25t91.5 -71.5t43 -112.5l-155 -8q-7 50 -35.5 75.5t-71.5 25.5q-56 0 -87 -43t-31 -121t31 -121t87 -43q43 0 72 26t35 81l155 -6q-7 -67 -41.5 -115.5
t-91 -75t-129.5 -26.5z" />
    <glyph glyph-name="sterling" unicode="&#xa3;" horiz-adv-x="647" 
d="M53 0v112q58 28 87.5 70t29.5 93q0 8 -1 17.5t-3 17.5h-114v82h96q-14 38 -22.5 70.5t-8.5 61.5q0 58 30 103.5t84 72t125 26.5q75 0 128 -24.5t85 -68.5t42 -104l-166 -7q-8 37 -31.5 56.5t-56.5 19.5q-26 0 -46 -11.5t-31 -31.5t-11 -45q0 -27 11.5 -56.5t22.5 -61.5
h153v-82h-144q-2 -63 -26.5 -109t-76.5 -70h390v-129z" />
    <glyph glyph-name="currency" unicode="&#xa4;" horiz-adv-x="633" 
d="M316 125q-61 0 -111.5 30t-80.5 80.5t-30 111.5t30 111.5t80.5 80.5t111.5 30q62 0 112 -30t80 -80.5t30 -111.5t-30 -111.5t-80 -80.5t-112 -30zM316 229q32 0 58.5 16t43 42.5t16.5 59.5t-16.5 59.5t-43 42.5t-58.5 16t-59 -16t-43 -42.5t-16 -59.5t16 -59.5t43 -42.5
t59 -16zM100 73l-58 58l133 132l58 -57zM533 73l-133 133l58 57l133 -132zM458 432l-58 57l133 133l58 -58zM175 432l-133 132l58 58l133 -133z" />
    <glyph glyph-name="yen" unicode="&#xa5;" horiz-adv-x="631" 
d="M104 122v91h487v-91h-487zM104 276v91h487v-91h-487zM240 0v276l-247 434h168l155 -286l154 286h168l-246 -434v-276h-152z" />
    <glyph glyph-name="brokenbar" unicode="&#xa6;" horiz-adv-x="294" 
d="M74 395v355h146v-355h-146zM74 -110v355h146v-355h-146z" />
    <glyph glyph-name="section" unicode="&#xa7;" horiz-adv-x="606" 
d="M316 -66q-79 0 -136.5 22.5t-90 64t-37.5 95.5l152 8q7 -38 34 -60t74 -22q29 0 48 7t28.5 19.5t9.5 28.5q0 25 -30 43.5t-107 32.5q-70 14 -113.5 35.5t-63 53t-17.5 75.5q1 37 21.5 65.5t59.5 47.5q-42 22 -61.5 49.5t-19.5 61.5q0 53 29 89.5t83 56t129 19.5
q69 0 121 -21t84 -61.5t41 -98.5l-151 -6q-5 38 -32 59.5t-69 21.5q-23 0 -41 -7t-28 -20t-10 -30q0 -26 22.5 -41t74.5 -26q76 -14 128 -35t78 -53.5t26 -83.5q0 -38 -19.5 -65.5t-59.5 -45.5q42 -21 61 -49.5t19 -69.5q0 -50 -29.5 -85.5t-82.5 -55t-125 -19.5zM323 264
q39 0 63.5 17.5t24.5 46.5q0 25 -18 40.5t-45 23.5t-54 8q-24 0 -43 -8t-30.5 -22.5t-11.5 -32.5q0 -19 11.5 -35t37 -26.5t65.5 -11.5z" />
    <glyph glyph-name="dieresis" unicode="&#xa8;" horiz-adv-x="432" 
d="M37 599v121h143v-121h-143zM252 599v121h143v-121h-143z" />
    <glyph glyph-name="copyright" unicode="&#xa9;" horiz-adv-x="822" 
d="M411 -12q-76 0 -143 28.5t-118 79.5t-79.5 118t-28.5 144q0 76 28.5 142.5t79.5 117.5t118 79.5t143 28.5q77 0 143.5 -28.5t117.5 -79.5t79.5 -117.5t28.5 -142.5q0 -77 -28.5 -144t-79.5 -118t-117.5 -79.5t-143.5 -28.5zM411 80q56 0 105.5 21.5t88 59.5t60 88.5
t21.5 108.5q0 57 -21.5 107t-60 88t-88 59.5t-105.5 21.5t-105.5 -21.5t-88 -59.5t-60 -88t-21.5 -107q0 -58 21.5 -108.5t60 -88.5t88 -59.5t105.5 -21.5zM415 156q-58 0 -102.5 25.5t-69.5 71t-25 105.5t25 105t69.5 70t102.5 25q51 0 91 -19.5t65.5 -55t29.5 -82.5
l-107 -5q-5 35 -26.5 55t-52.5 20q-27 0 -47 -13.5t-31.5 -39t-11.5 -60.5t11.5 -61t31.5 -39.5t47 -13.5q22 0 39 9.5t28 27t14 42.5l108 -4q-5 -48 -30 -85t-66 -57.5t-93 -20.5z" />
    <glyph glyph-name="ordfeminine" unicode="&#xaa;" horiz-adv-x="432" 
d="M165 376q-57 0 -91 24t-34 67q0 46 30 69.5t88 35.5l104 21q0 30 -13 44.5t-36 14.5t-36.5 -10.5t-17.5 -33.5l-113 4q10 58 52 86t115 28q82 0 122 -36t40 -105v-108q0 -15 5 -20t14 -5h8v-72q-5 -1 -17 -2.5t-27 -1.5q-18 0 -36.5 6.5t-30.5 24.5t-12 51l8 -7
q-9 -33 -39.5 -54t-82.5 -21zM192 445q30 0 50 18t20 51v16l-65 -15q-19 -5 -30 -14.5t-11 -23.5q0 -15 8.5 -23.5t27.5 -8.5z" />
    <glyph glyph-name="guillemotleft" unicode="&#xab;" horiz-adv-x="645" 
d="M344 76h-167l-140 164v72l140 164h167l-171 -200zM608 76h-167l-140 164v72l140 164h167l-171 -200z" />
    <glyph glyph-name="logicalnot" unicode="&#xac;" horiz-adv-x="512" 
d="M370 66v163h-330v101h432v-264h-102z" />
    <glyph glyph-name="registered" unicode="&#xae;" horiz-adv-x="649" 
d="M325 160q-59 0 -110.5 22.5t-90 61t-60.5 90t-22 110.5t22 110t60.5 89.5t90 60.5t110.5 22q58 0 109.5 -22t90 -60.5t60.5 -89.5t22 -110t-22 -110.5t-60.5 -90t-90 -61t-109.5 -22.5zM325 225q61 0 109.5 30t77 80t28.5 109t-28.5 108.5t-77 79t-109.5 29.5
t-109.5 -29.5t-77.5 -79t-29 -108.5t29 -109t77.5 -80t109.5 -30zM207 295v299h120q57 0 91 -26t34 -69q0 -30 -15 -52.5t-43 -32.5l65 -119h-86l-55 107h-32v-107h-79zM285 462h35q23 0 37 8.5t14 26.5t-14 26t-37 8h-35v-69z" />
    <glyph glyph-name="macron" unicode="&#xaf;" horiz-adv-x="373" 
d="M37 607v110h299v-110h-299z" />
    <glyph glyph-name="degree" unicode="&#xb0;" horiz-adv-x="428" 
d="M214 372q-48 0 -88.5 23t-64.5 63.5t-24 90.5t24 90t64.5 63.5t88.5 23.5t88.5 -23.5t64.5 -63.5t24 -90q0 -51 -24 -91t-64.5 -63t-88.5 -23zM214 476q30 0 51.5 20.5t21.5 52.5t-21.5 53t-51.5 21q-29 0 -51 -21t-22 -53t22 -52.5t51 -20.5z" />
    <glyph glyph-name="plusminus" unicode="&#xb1;" horiz-adv-x="550" 
d="M40 0v106h470v-106h-470zM214 146v446h122v-446h-122zM40 310v117h470v-117h-470z" />
    <glyph glyph-name="uni00B2" unicode="&#xb2;" horiz-adv-x="372" 
d="M44 323q0 54 8 89t31 60t66 46l47 24q17 8 26 15t13.5 16.5t4.5 24.5q0 20 -13 32t-37 12q-27 0 -41 -13t-19 -44l-90 5q7 61 45.5 94.5t103.5 33.5q73 0 107 -33t34 -85q0 -46 -23.5 -74t-68.5 -50l-45 -22q-27 -13 -37 -25t-10 -23h185v-83h-287z" />
    <glyph glyph-name="uni00B3" unicode="&#xb3;" horiz-adv-x="369" 
d="M180 315q-60 0 -93.5 13t-48.5 38.5t-18 62.5l98 4q2 -19 16.5 -30.5t45.5 -11.5q28 0 44.5 12.5t16.5 35.5q0 22 -16 35t-49 13h-31v68h31q23 0 36.5 11t13.5 30q0 22 -11.5 34t-39.5 12q-24 0 -38 -11.5t-16 -31.5l-97 5q6 55 42 84.5t109 29.5q79 0 113.5 -29
t34.5 -75q0 -35 -18.5 -57t-54.5 -31q47 -9 68 -32.5t21 -60.5q0 -51 -39.5 -84.5t-119.5 -33.5z" />
    <glyph glyph-name="acute" unicode="&#xb4;" horiz-adv-x="278" 
d="M37 591l59 148h145l-90 -148h-114z" />
    <glyph glyph-name="uni00B5" unicode="&#xb5;" horiz-adv-x="607" 
d="M66 -150v380l150 -169v-211h-150zM242 -12q-83 0 -129.5 53.5t-46.5 149.5v345h150v-310q0 -62 19 -90.5t60 -28.5q46 0 71.5 31.5t25.5 94.5v303h150v-536h-137l-4 154l19 -4q-12 -80 -57 -121t-121 -41z" />
    <glyph glyph-name="paragraph" unicode="&#xb6;" horiz-adv-x="661" 
d="M250 0v309q-62 0 -108.5 25t-73 69.5t-26.5 103.5q0 62 29 107.5t81.5 70.5t121.5 25h313v-710h-134v596h-69v-596h-134z" />
    <glyph glyph-name="periodcentered" unicode="&#xb7;" horiz-adv-x="236" 
d="M37 225v153h163v-153h-163z" />
    <glyph glyph-name="cedilla" unicode="&#xb8;" horiz-adv-x="328" 
d="M165 -232q-50 0 -82.5 23t-45.5 60l66 28q8 -19 22 -28.5t37 -9.5q22 0 35 9.5t13 26.5q0 18 -12.5 28.5t-52.5 10.5l-41 39l33 55h86l-27 -41q50 -5 73 -31.5t23 -63.5q0 -36 -17.5 -59.5t-45.5 -35t-64 -11.5z" />
    <glyph glyph-name="uni00B9" unicode="&#xb9;" horiz-adv-x="282" 
d="M123 323v223l-103 -1v74h28q46 0 69.5 25t23.5 66h81v-387h-99z" />
    <glyph glyph-name="ordmasculine" unicode="&#xba;" horiz-adv-x="446" 
d="M223 376q-84 0 -133.5 48t-49.5 127t49 127t134 48t134 -48t49 -127t-49.5 -127t-133.5 -48zM223 456q33 0 50 24t17 71q0 46 -17 70.5t-50 24.5t-50 -25t-17 -70q0 -46 17 -70.5t50 -24.5z" />
    <glyph glyph-name="guillemotright" unicode="&#xbb;" horiz-adv-x="655" 
d="M307 76l171 200l-171 200h167l140 -164v-72l-140 -164h-167zM43 76l171 200l-171 200h167l140 -164v-72l-140 -164h-167z" />
    <glyph glyph-name="onequarter" unicode="&#xbc;" horiz-adv-x="790" 
d="M123 323v223l-103 -1v74h28q46 0 69.5 25t23.5 66h81v-387h-99zM110 0l472 710h92l-472 -710h-92zM622 0v76h-182v71l173 240h108v-234h49v-77h-49v-76h-99zM533 153h89v116z" />
    <glyph glyph-name="onehalf" unicode="&#xbd;" horiz-adv-x="846" 
d="M123 323v223l-103 -1v74h28q46 0 69.5 25t23.5 66h81v-387h-99zM110 0l472 710h92l-472 -710h-92zM518 0q0 54 8 89t31 60t66 46l47 24q17 8 26 15t13.5 16.5t4.5 24.5q0 20 -13 32t-37 12q-27 0 -41 -13t-19 -44l-90 5q7 61 45.5 94.5t103.5 33.5q73 0 107 -33t34 -85
q0 -46 -23.5 -74t-68.5 -50l-45 -22q-27 -13 -37 -25t-10 -23h185v-83h-287z" />
    <glyph glyph-name="threequarters" unicode="&#xbe;" horiz-adv-x="849" 
d="M180 315q-60 0 -93.5 13t-48.5 38.5t-18 62.5l98 4q2 -19 16.5 -30.5t45.5 -11.5q28 0 44.5 12.5t16.5 35.5q0 22 -16 35t-49 13h-31v68h31q23 0 36.5 11t13.5 30q0 22 -11.5 34t-39.5 12q-24 0 -38 -11.5t-16 -31.5l-97 5q6 55 42 84.5t109 29.5q79 0 113.5 -29
t34.5 -75q0 -35 -18.5 -57t-54.5 -31q47 -9 68 -32.5t21 -60.5q0 -51 -39.5 -84.5t-119.5 -33.5zM169 0l472 710h92l-472 -710h-92zM681 0v76h-182v71l173 240h108v-234h49v-77h-49v-76h-99zM592 153h89v116z" />
    <glyph glyph-name="questiondown" unicode="&#xbf;" horiz-adv-x="591" 
d="M284 -162q-80 0 -135.5 27t-83.5 74.5t-28 106.5q0 43 12 73.5t39.5 54t71.5 48.5q38 22 52 46.5t14 71.5h148q0 -80 -22 -123t-76 -69q-37 -19 -55 -33.5t-24.5 -30.5t-6.5 -38q0 -37 25 -60.5t69 -23.5q52 0 80.5 27.5t34.5 81.5l156 -8q-6 -65 -39 -116t-91.5 -80
t-140.5 -29zM383 564v-153h-163v153h163z" />
    <glyph glyph-name="Agrave" unicode="&#xc0;" horiz-adv-x="730" 
d="M19 0l256 710h180l256 -710h-158l-52 151h-273l-52 -151h-157zM271 276h188l-94 274zM318 772l-90 147h145l59 -147h-114z" />
    <glyph glyph-name="Aacute" unicode="&#xc1;" horiz-adv-x="730" 
d="M19 0l256 710h180l256 -710h-158l-52 151h-273l-52 -151h-157zM271 276h188l-94 274zM297 765l59 148h145l-90 -148h-114z" />
    <glyph glyph-name="Acircumflex" unicode="&#xc2;" horiz-adv-x="730" 
d="M19 0l256 710h180l256 -710h-158l-52 151h-273l-52 -151h-157zM271 276h188l-94 274zM197 765l96 153h144l96 -153h-105l-78 110h30l-78 -110h-105z" />
    <glyph glyph-name="Atilde" unicode="&#xc3;" horiz-adv-x="736" 
d="M13 0l256 710h180l256 -710h-158l-52 151h-273l-52 -151h-157zM265 276h188l-94 274zM415 780q-23 0 -40 7t-36 23q-11 9 -19.5 13.5t-19.5 4.5q-15 0 -25.5 -11t-12.5 -42h-75q1 65 30 103.5t80 38.5q24 0 43 -7t39 -23q12 -9 20.5 -13.5t17.5 -4.5q16 0 26 11.5
t12 43.5h74q-1 -66 -30.5 -105t-83.5 -39z" />
    <glyph glyph-name="Adieresis" unicode="&#xc4;" horiz-adv-x="730" 
d="M19 0l256 710h180l256 -710h-158l-52 151h-273l-52 -151h-157zM271 276h188l-94 274zM186 773v121h143v-121h-143zM401 773v121h143v-121h-143z" />
    <glyph glyph-name="Aring" unicode="&#xc5;" horiz-adv-x="736" 
d="M13 0l256 710h180l256 -710h-158l-52 151h-273l-52 -151h-157zM265 276h188l-94 274zM363 755q-44 0 -73.5 29t-29.5 72q0 44 29.5 73t73.5 29q43 0 72.5 -29t29.5 -72q0 -44 -29.5 -73t-72.5 -29zM363 819q16 0 26.5 10.5t10.5 26.5t-10.5 27t-26.5 11t-27 -11t-11 -27
t11 -26.5t27 -10.5z" />
    <glyph glyph-name="AE" unicode="&#xc6;" horiz-adv-x="1042" 
d="M19 0l380 710h590v-128h-313v-163h301v-126h-301v-165h321v-128h-473v152h-283l59 123h224v309h-43l-302 -584h-160z" />
    <glyph glyph-name="Ccedilla" unicode="&#xc7;" horiz-adv-x="734" 
d="M375 -16q-97 0 -172.5 44t-118 127t-42.5 199q0 113 41 196.5t117 129.5t178 46q139 0 216.5 -68.5t99.5 -195.5l-158 -6q-12 67 -52 104.5t-106 37.5q-57 0 -97 -30t-61 -85t-21 -129q0 -75 21.5 -129.5t61.5 -83.5t95 -29q72 0 111.5 40.5t49.5 112.5l159 -6
q-14 -87 -55 -148t-107.5 -94t-159.5 -33zM373 -232q-50 0 -82.5 23t-45.5 60l66 28q8 -19 22 -28.5t37 -9.5q22 0 35 9.5t13 26.5q0 18 -12.5 28.5t-52.5 10.5l-41 39l33 55h86l-27 -41q50 -5 73 -31.5t23 -63.5q0 -36 -17.5 -59.5t-45.5 -35t-64 -11.5z" />
    <glyph glyph-name="Egrave" unicode="&#xc8;" horiz-adv-x="622" 
d="M74 0v710h494v-128h-342v-163h330v-126h-330v-165h350v-128h-502zM274 772l-90 147h145l59 -147h-114z" />
    <glyph glyph-name="Eacute" unicode="&#xc9;" horiz-adv-x="622" 
d="M74 0v710h494v-128h-342v-163h330v-126h-330v-165h350v-128h-502zM254 765l59 148h145l-90 -148h-114z" />
    <glyph glyph-name="Ecircumflex" unicode="&#xca;" horiz-adv-x="622" 
d="M74 0v710h494v-128h-342v-163h330v-126h-330v-165h350v-128h-502zM154 765l96 153h144l96 -153h-105l-78 110h30l-78 -110h-105z" />
    <glyph glyph-name="Edieresis" unicode="&#xcb;" horiz-adv-x="622" 
d="M74 0v710h494v-128h-342v-163h330v-126h-330v-165h350v-128h-502zM143 773v121h143v-121h-143zM358 773v121h143v-121h-143z" />
    <glyph glyph-name="Igrave" unicode="&#xcc;" horiz-adv-x="300" 
d="M74 0v710h152v-710h-152zM102 772l-90 147h145l59 -147h-114z" />
    <glyph glyph-name="Iacute" unicode="&#xcd;" horiz-adv-x="300" 
d="M74 0v710h152v-710h-152zM82 765l59 148h145l-90 -148h-114z" />
    <glyph glyph-name="Icircumflex" unicode="&#xce;" horiz-adv-x="300" 
d="M74 0v710h152v-710h-152zM-18 765l96 153h144l96 -153h-105l-78 110h30l-78 -110h-105z" />
    <glyph glyph-name="Idieresis" unicode="&#xcf;" horiz-adv-x="300" 
d="M74 0v710h152v-710h-152zM-29 773v121h143v-121h-143zM186 773v121h143v-121h-143z" />
    <glyph glyph-name="Eth" unicode="&#xd0;" horiz-adv-x="720" 
d="M74 0v710h245q173 0 266 -92.5t93 -263.5q0 -170 -91.5 -262t-261.5 -92h-251zM226 128h93q103 0 152.5 55.5t49.5 171.5t-49.5 171.5t-152.5 55.5h-93v-454zM9 298v115h402v-115h-402z" />
    <glyph glyph-name="Ntilde" unicode="&#xd1;" horiz-adv-x="750" 
d="M74 0v710h168l282 -490v490h152v-710h-170l-280 473v-473h-152zM438 774q-23 0 -40 7t-36 23q-11 9 -19.5 13.5t-19.5 4.5q-15 0 -25.5 -11t-12.5 -42h-75q1 65 30 103.5t80 38.5q24 0 43 -7t39 -23q12 -9 20.5 -13.5t17.5 -4.5q16 0 26 11.5t12 43.5h74
q-1 -66 -30.5 -105t-83.5 -39z" />
    <glyph glyph-name="Ograve" unicode="&#xd2;" horiz-adv-x="776" 
d="M388 -16q-108 0 -185.5 45t-119 128t-41.5 197t41.5 197.5t119 129t185.5 45.5t185.5 -45.5t119 -129t41.5 -197.5t-41.5 -197t-119 -128t-185.5 -45zM387 112q60 0 102.5 28.5t65 82.5t22.5 131t-22.5 131.5t-65 83.5t-102.5 29q-59 0 -101 -29t-64.5 -83.5
t-22.5 -131.5t22.5 -131t65 -82.5t100.5 -28.5zM340 772l-90 147h145l59 -147h-114z" />
    <glyph glyph-name="Oacute" unicode="&#xd3;" horiz-adv-x="776" 
d="M388 -16q-108 0 -185.5 45t-119 128t-41.5 197t41.5 197.5t119 129t185.5 45.5t185.5 -45.5t119 -129t41.5 -197.5t-41.5 -197t-119 -128t-185.5 -45zM387 112q60 0 102.5 28.5t65 82.5t22.5 131t-22.5 131.5t-65 83.5t-102.5 29q-59 0 -101 -29t-64.5 -83.5
t-22.5 -131.5t22.5 -131t65 -82.5t100.5 -28.5zM320 765l59 148h145l-90 -148h-114z" />
    <glyph glyph-name="Ocircumflex" unicode="&#xd4;" horiz-adv-x="776" 
d="M388 -16q-108 0 -185.5 45t-119 128t-41.5 197t41.5 197.5t119 129t185.5 45.5t185.5 -45.5t119 -129t41.5 -197.5t-41.5 -197t-119 -128t-185.5 -45zM387 112q60 0 102.5 28.5t65 82.5t22.5 131t-22.5 131.5t-65 83.5t-102.5 29q-59 0 -101 -29t-64.5 -83.5
t-22.5 -131.5t22.5 -131t65 -82.5t100.5 -28.5zM220 765l96 153h144l96 -153h-105l-78 110h30l-78 -110h-105z" />
    <glyph glyph-name="Otilde" unicode="&#xd5;" horiz-adv-x="776" 
d="M388 -16q-108 0 -185.5 45t-119 128t-41.5 197t41.5 197.5t119 129t185.5 45.5t185.5 -45.5t119 -129t41.5 -197.5t-41.5 -197t-119 -128t-185.5 -45zM387 112q60 0 102.5 28.5t65 82.5t22.5 131t-22.5 131.5t-65 83.5t-102.5 29q-59 0 -101 -29t-64.5 -83.5
t-22.5 -131.5t22.5 -131t65 -82.5t100.5 -28.5zM444 774q-23 0 -40 7t-36 23q-11 9 -19.5 13.5t-19.5 4.5q-15 0 -25.5 -11t-12.5 -42h-75q1 65 30 103.5t80 38.5q24 0 43 -7t39 -23q12 -9 20.5 -13.5t17.5 -4.5q16 0 26 11.5t12 43.5h74q-1 -66 -30.5 -105t-83.5 -39z" />
    <glyph glyph-name="Odieresis" unicode="&#xd6;" horiz-adv-x="776" 
d="M388 -16q-108 0 -185.5 45t-119 128t-41.5 197t41.5 197.5t119 129t185.5 45.5t185.5 -45.5t119 -129t41.5 -197.5t-41.5 -197t-119 -128t-185.5 -45zM387 112q60 0 102.5 28.5t65 82.5t22.5 131t-22.5 131.5t-65 83.5t-102.5 29q-59 0 -101 -29t-64.5 -83.5
t-22.5 -131.5t22.5 -131t65 -82.5t100.5 -28.5zM209 773v121h143v-121h-143zM424 773v121h143v-121h-143z" />
    <glyph glyph-name="multiply" unicode="&#xd7;" horiz-adv-x="540" 
d="M40 142l375 375l85 -86l-374 -375zM40 431l86 86l374 -375l-85 -86z" />
    <glyph glyph-name="Oslash" unicode="&#xd8;" horiz-adv-x="776" 
d="M388 -16q-108 0 -185.5 45t-119 128t-41.5 197t41.5 197.5t119 129t185.5 45.5t185.5 -45.5t119 -129t41.5 -197.5t-41.5 -197t-119 -128t-185.5 -45zM387 112q60 0 102.5 28.5t65 82.5t22.5 131t-22.5 131.5t-65 83.5t-102.5 29q-59 0 -101 -29t-64.5 -83.5
t-22.5 -131.5t22.5 -131t65 -82.5t100.5 -28.5zM72 -16l520 742h112l-520 -742h-112z" />
    <glyph glyph-name="Ugrave" unicode="&#xd9;" horiz-adv-x="703" 
d="M352 -16q-90 0 -155.5 33t-101.5 94.5t-36 144.5v455h152v-455q0 -69 36.5 -106.5t104.5 -37.5t104 37.5t36 106.5v455h152v-455q0 -83 -35.5 -144.5t-101.5 -94.5t-155 -33zM304 772l-90 147h145l59 -147h-114z" />
    <glyph glyph-name="Uacute" unicode="&#xda;" horiz-adv-x="703" 
d="M352 -16q-90 0 -155.5 33t-101.5 94.5t-36 144.5v455h152v-455q0 -69 36.5 -106.5t104.5 -37.5t104 37.5t36 106.5v455h152v-455q0 -83 -35.5 -144.5t-101.5 -94.5t-155 -33zM284 765l59 148h145l-90 -148h-114z" />
    <glyph glyph-name="Ucircumflex" unicode="&#xdb;" horiz-adv-x="703" 
d="M352 -16q-90 0 -155.5 33t-101.5 94.5t-36 144.5v455h152v-455q0 -69 36.5 -106.5t104.5 -37.5t104 37.5t36 106.5v455h152v-455q0 -83 -35.5 -144.5t-101.5 -94.5t-155 -33zM184 765l96 153h144l96 -153h-105l-78 110h30l-78 -110h-105z" />
    <glyph glyph-name="Udieresis" unicode="&#xdc;" horiz-adv-x="703" 
d="M352 -16q-90 0 -155.5 33t-101.5 94.5t-36 144.5v455h152v-455q0 -69 36.5 -106.5t104.5 -37.5t104 37.5t36 106.5v455h152v-455q0 -83 -35.5 -144.5t-101.5 -94.5t-155 -33zM173 773v121h143v-121h-143zM388 773v121h143v-121h-143z" />
    <glyph glyph-name="Yacute" unicode="&#xdd;" horiz-adv-x="631" 
d="M240 0v276l-247 434h168l155 -286l154 286h168l-246 -434v-276h-152zM248 765l59 148h145l-90 -148h-114z" />
    <glyph glyph-name="Thorn" unicode="&#xde;" horiz-adv-x="642" 
d="M124 149v128h209q56 0 84 22.5t28 66.5t-28 66t-84 22h-209v129h212q127 0 196 -57t69 -159q0 -104 -69 -161t-196 -57h-212zM74 0v710h152v-710h-152z" />
    <glyph glyph-name="germandbls" unicode="&#xdf;" horiz-adv-x="656" 
d="M66 0v463q0 82 31.5 139.5t92 87.5t144.5 30q118 0 182 -51.5t64 -140.5q0 -70 -49 -113t-132 -49l-1 17q68 -3 119 -26.5t79 -64.5t28 -95q0 -93 -72.5 -145t-206.5 -52h-66v126h64q62 0 94.5 22t32.5 68q0 30 -14.5 51t-44.5 31.5t-75 10.5h-48v122h41q45 0 72.5 22
t27.5 61q0 36 -24 58t-71 22q-55 0 -86.5 -35t-31.5 -96v-463h-150z" />
    <glyph glyph-name="agrave" unicode="&#xe0;" horiz-adv-x="594" 
d="M225 -12q-83 0 -135.5 38.5t-52.5 107.5q0 71 44.5 109.5t131.5 56.5l173 34q0 52 -23.5 78.5t-67.5 26.5q-43 0 -67 -19.5t-31 -57.5l-151 7q15 88 79.5 133.5t169.5 45.5q120 0 180.5 -57t60.5 -167v-183q0 -23 7.5 -30.5t22.5 -7.5h15v-103q-7 -2 -22.5 -4t-30.5 -2
q-32 0 -59.5 11t-44.5 37.5t-17 75.5l13 -10q-10 -36 -35.5 -63t-66 -42t-93.5 -15zM261 91q37 0 65 14.5t44 42.5t16 66v26l-122 -26q-36 -7 -54.5 -23.5t-18.5 -42.5q0 -27 18 -42t52 -15zM249 598l-90 147h145l59 -147h-114z" />
    <glyph glyph-name="aacute" unicode="&#xe1;" horiz-adv-x="594" 
d="M225 -12q-83 0 -135.5 38.5t-52.5 107.5q0 71 44.5 109.5t131.5 56.5l173 34q0 52 -23.5 78.5t-67.5 26.5q-43 0 -67 -19.5t-31 -57.5l-151 7q15 88 79.5 133.5t169.5 45.5q120 0 180.5 -57t60.5 -167v-183q0 -23 7.5 -30.5t22.5 -7.5h15v-103q-7 -2 -22.5 -4t-30.5 -2
q-32 0 -59.5 11t-44.5 37.5t-17 75.5l13 -10q-10 -36 -35.5 -63t-66 -42t-93.5 -15zM261 91q37 0 65 14.5t44 42.5t16 66v26l-122 -26q-36 -7 -54.5 -23.5t-18.5 -42.5q0 -27 18 -42t52 -15zM229 591l59 148h145l-90 -148h-114z" />
    <glyph glyph-name="acircumflex" unicode="&#xe2;" horiz-adv-x="594" 
d="M225 -12q-83 0 -135.5 38.5t-52.5 107.5q0 71 44.5 109.5t131.5 56.5l173 34q0 52 -23.5 78.5t-67.5 26.5q-43 0 -67 -19.5t-31 -57.5l-151 7q15 88 79.5 133.5t169.5 45.5q120 0 180.5 -57t60.5 -167v-183q0 -23 7.5 -30.5t22.5 -7.5h15v-103q-7 -2 -22.5 -4t-30.5 -2
q-32 0 -59.5 11t-44.5 37.5t-17 75.5l13 -10q-10 -36 -35.5 -63t-66 -42t-93.5 -15zM261 91q37 0 65 14.5t44 42.5t16 66v26l-122 -26q-36 -7 -54.5 -23.5t-18.5 -42.5q0 -27 18 -42t52 -15zM129 591l96 153h144l96 -153h-105l-78 110h30l-78 -110h-105z" />
    <glyph glyph-name="atilde" unicode="&#xe3;" horiz-adv-x="594" 
d="M225 -12q-83 0 -135.5 38.5t-52.5 107.5q0 71 44.5 109.5t131.5 56.5l173 34q0 52 -23.5 78.5t-67.5 26.5q-43 0 -67 -19.5t-31 -57.5l-151 7q15 88 79.5 133.5t169.5 45.5q120 0 180.5 -57t60.5 -167v-183q0 -23 7.5 -30.5t22.5 -7.5h15v-103q-7 -2 -22.5 -4t-30.5 -2
q-32 0 -59.5 11t-44.5 37.5t-17 75.5l13 -10q-10 -36 -35.5 -63t-66 -42t-93.5 -15zM261 91q37 0 65 14.5t44 42.5t16 66v26l-122 -26q-36 -7 -54.5 -23.5t-18.5 -42.5q0 -27 18 -42t52 -15zM353 600q-23 0 -40 7t-36 23q-11 9 -19.5 13.5t-19.5 4.5q-15 0 -25.5 -11
t-12.5 -42h-75q1 65 30 103.5t80 38.5q24 0 43 -7t39 -23q12 -9 20.5 -13.5t17.5 -4.5q16 0 26 11.5t12 43.5h74q-1 -66 -30.5 -105t-83.5 -39z" />
    <glyph glyph-name="adieresis" unicode="&#xe4;" horiz-adv-x="594" 
d="M225 -12q-83 0 -135.5 38.5t-52.5 107.5q0 71 44.5 109.5t131.5 56.5l173 34q0 52 -23.5 78.5t-67.5 26.5q-43 0 -67 -19.5t-31 -57.5l-151 7q15 88 79.5 133.5t169.5 45.5q120 0 180.5 -57t60.5 -167v-183q0 -23 7.5 -30.5t22.5 -7.5h15v-103q-7 -2 -22.5 -4t-30.5 -2
q-32 0 -59.5 11t-44.5 37.5t-17 75.5l13 -10q-10 -36 -35.5 -63t-66 -42t-93.5 -15zM261 91q37 0 65 14.5t44 42.5t16 66v26l-122 -26q-36 -7 -54.5 -23.5t-18.5 -42.5q0 -27 18 -42t52 -15zM118 599v121h143v-121h-143zM333 599v121h143v-121h-143z" />
    <glyph glyph-name="aring" unicode="&#xe5;" horiz-adv-x="594" 
d="M225 -12q-83 0 -135.5 38.5t-52.5 107.5q0 71 44.5 109.5t131.5 56.5l173 34q0 52 -23.5 78.5t-67.5 26.5q-43 0 -67 -19.5t-31 -57.5l-151 7q15 88 79.5 133.5t169.5 45.5q120 0 180.5 -57t60.5 -167v-183q0 -23 7.5 -30.5t22.5 -7.5h15v-103q-7 -2 -22.5 -4t-30.5 -2
q-32 0 -59.5 11t-44.5 37.5t-17 75.5l13 -10q-10 -36 -35.5 -63t-66 -42t-93.5 -15zM261 91q37 0 65 14.5t44 42.5t16 66v26l-122 -26q-36 -7 -54.5 -23.5t-18.5 -42.5q0 -27 18 -42t52 -15zM297 575q-44 0 -73.5 29t-29.5 72q0 44 29.5 73t73.5 29q43 0 72.5 -29t29.5 -72
q0 -44 -29.5 -73t-72.5 -29zM297 639q16 0 26.5 10.5t10.5 26.5t-10.5 27t-26.5 11t-27 -11t-11 -27t11 -26.5t27 -10.5z" />
    <glyph glyph-name="ae" unicode="&#xe6;" horiz-adv-x="959" 
d="M226 -12q-82 0 -135.5 37.5t-53.5 108.5q0 52 22 85t62 52t92 29l173 30q-1 56 -24 82.5t-69 26.5q-42 0 -66 -20.5t-30 -56.5l-151 7q16 87 79 133t167 46q119 0 183 -57.5t61 -175.5l-71 -159q-12 -55 -44.5 -92.5t-82 -56.5t-112.5 -19zM272 90q34 1 59.5 14.5
t40 40.5t14.5 67v24l-122 -22q-38 -6 -55.5 -23t-17.5 -43q0 -29 19 -44.5t62 -13.5zM661 -12q-83 0 -143.5 34.5t-94 97.5t-33.5 148t33.5 147.5t94 97.5t141.5 35q80 0 139 -35t91.5 -100t32.5 -155v-30h-377q3 -64 34.5 -95t83.5 -31q38 0 64 16t36 49l151 -9
q-21 -80 -89 -125t-164 -45zM545 320h224q-3 59 -33 88t-77 29t-77.5 -30.5t-36.5 -86.5z" />
    <glyph glyph-name="ccedilla" unicode="&#xe7;" horiz-adv-x="598" 
d="M309 -12q-82 0 -143 34.5t-95 97.5t-34 148t34 147.5t95 97.5t143 35q71 0 127.5 -25t91.5 -72t43 -113l-155 -7q-7 50 -35.5 75.5t-71.5 25.5q-56 0 -87 -43t-31 -121t31 -121.5t87 -43.5q43 0 72 26.5t35 80.5l155 -6q-7 -66 -41.5 -114.5t-91 -75t-129.5 -26.5z
M303 -232q-50 0 -82.5 23t-45.5 60l66 28q8 -19 22 -28.5t37 -9.5q22 0 35 9.5t13 26.5q0 18 -12.5 28.5t-52.5 10.5l-41 39l33 55h86l-27 -41q50 -5 73 -31.5t23 -63.5q0 -36 -17.5 -59.5t-45.5 -35t-64 -11.5z" />
    <glyph glyph-name="egrave" unicode="&#xe8;" horiz-adv-x="605" 
d="M307 -12q-82 0 -142.5 34.5t-94 97.5t-33.5 148t33.5 147.5t93.5 97.5t142 35q80 0 139 -35t91.5 -100t32.5 -155v-30h-377q3 -64 34.5 -95t83.5 -31q38 0 63.5 16t36.5 49l151 -9q-21 -80 -89 -125t-165 -45zM192 320h223q-3 59 -32.5 88t-76.5 29t-77.5 -30.5
t-36.5 -86.5zM262 596l-90 147h145l59 -147h-114z" />
    <glyph glyph-name="eacute" unicode="&#xe9;" horiz-adv-x="605" 
d="M307 -12q-82 0 -142.5 34.5t-94 97.5t-33.5 148t33.5 147.5t93.5 97.5t142 35q80 0 139 -35t91.5 -100t32.5 -155v-30h-377q3 -64 34.5 -95t83.5 -31q38 0 63.5 16t36.5 49l151 -9q-21 -80 -89 -125t-165 -45zM192 320h223q-3 59 -32.5 88t-76.5 29t-77.5 -30.5
t-36.5 -86.5zM241 589l59 148h145l-90 -148h-114z" />
    <glyph glyph-name="ecircumflex" unicode="&#xea;" horiz-adv-x="605" 
d="M307 -12q-82 0 -142.5 34.5t-94 97.5t-33.5 148t33.5 147.5t93.5 97.5t142 35q80 0 139 -35t91.5 -100t32.5 -155v-30h-377q3 -64 34.5 -95t83.5 -31q38 0 63.5 16t36.5 49l151 -9q-21 -80 -89 -125t-165 -45zM192 320h223q-3 59 -32.5 88t-76.5 29t-77.5 -30.5
t-36.5 -86.5zM141 589l96 153h144l96 -153h-105l-78 110h30l-78 -110h-105z" />
    <glyph glyph-name="edieresis" unicode="&#xeb;" horiz-adv-x="605" 
d="M307 -12q-82 0 -142.5 34.5t-94 97.5t-33.5 148t33.5 147.5t93.5 97.5t142 35q80 0 139 -35t91.5 -100t32.5 -155v-30h-377q3 -64 34.5 -95t83.5 -31q38 0 63.5 16t36.5 49l151 -9q-21 -80 -89 -125t-165 -45zM192 320h223q-3 59 -32.5 88t-76.5 29t-77.5 -30.5
t-36.5 -86.5zM130 597v121h143v-121h-143zM345 597v121h143v-121h-143z" />
    <glyph glyph-name="igrave" unicode="&#xec;" horiz-adv-x="281" 
d="M66 0v536h150v-536h-150zM93 598l-90 147h145l59 -147h-114z" />
    <glyph glyph-name="iacute" unicode="&#xed;" horiz-adv-x="281" 
d="M66 0v536h150v-536h-150zM73 591l59 148h145l-90 -148h-114z" />
    <glyph glyph-name="icircumflex" unicode="&#xee;" horiz-adv-x="281" 
d="M66 0v536h150v-536h-150zM-27 591l96 153h144l96 -153h-105l-78 110h30l-78 -110h-105z" />
    <glyph glyph-name="idieresis" unicode="&#xef;" horiz-adv-x="281" 
d="M66 0v536h150v-536h-150zM-38 599v121h143v-121h-143zM177 599v121h143v-121h-143z" />
    <glyph glyph-name="eth" unicode="&#xf0;" horiz-adv-x="618" 
d="M231 501l-28 69l338 142l28 -68zM447 298q0 96 -25.5 166t-85.5 110t-161 46l40 102q99 -9 168.5 -48.5t113.5 -102t64 -141.5t20 -167zM309 -12q-88 0 -149 30t-92 85t-31 132t31 132t92 85t149 30q55 0 104 -21.5t87 -55t59.5 -71.5t21.5 -71q0 -136 -70 -205.5
t-202 -69.5zM309 101q56 0 87 36.5t31 101.5q0 58 -31 94t-87 36t-87 -36.5t-31 -97.5q0 -62 31 -98t87 -36z" />
    <glyph glyph-name="ntilde" unicode="&#xf1;" horiz-adv-x="611" 
d="M66 0v536h135l6 -157l-19 5q8 60 32.5 96t61.5 52t81 16q58 0 98.5 -25t62 -70.5t21.5 -107.5v-345h-150v295q0 43 -7 73t-25 45.5t-50 15.5q-47 0 -72 -34.5t-25 -99.5v-295h-150zM362 600q-23 0 -40 7t-36 23q-11 9 -19.5 13.5t-19.5 4.5q-15 0 -25.5 -11t-12.5 -42
h-75q1 65 30 103.5t80 38.5q24 0 43 -7t39 -23q12 -9 20.5 -13.5t17.5 -4.5q16 0 26 11.5t12 43.5h74q-1 -66 -30.5 -105t-83.5 -39z" />
    <glyph glyph-name="ograve" unicode="&#xf2;" horiz-adv-x="618" 
d="M309 -12q-82 0 -143 34.5t-95 97.5t-34 148t34 147.5t95 97.5t143 35t143 -35t95 -97.5t34 -147.5t-34 -148t-95 -97.5t-143 -34.5zM309 103q56 0 87 43.5t31 121.5t-31 121.5t-87 43.5t-87 -43.5t-31 -121.5t31 -121.5t87 -43.5zM262 598l-90 147h145l59 -147h-114z" />
    <glyph glyph-name="oacute" unicode="&#xf3;" horiz-adv-x="618" 
d="M309 -12q-82 0 -143 34.5t-95 97.5t-34 148t34 147.5t95 97.5t143 35t143 -35t95 -97.5t34 -147.5t-34 -148t-95 -97.5t-143 -34.5zM309 103q56 0 87 43.5t31 121.5t-31 121.5t-87 43.5t-87 -43.5t-31 -121.5t31 -121.5t87 -43.5zM241 591l59 148h145l-90 -148h-114z" />
    <glyph glyph-name="ocircumflex" unicode="&#xf4;" horiz-adv-x="618" 
d="M309 -12q-82 0 -143 34.5t-95 97.5t-34 148t34 147.5t95 97.5t143 35t143 -35t95 -97.5t34 -147.5t-34 -148t-95 -97.5t-143 -34.5zM309 103q56 0 87 43.5t31 121.5t-31 121.5t-87 43.5t-87 -43.5t-31 -121.5t31 -121.5t87 -43.5zM141 591l96 153h144l96 -153h-105
l-78 110h30l-78 -110h-105z" />
    <glyph glyph-name="otilde" unicode="&#xf5;" horiz-adv-x="618" 
d="M309 -12q-82 0 -143 34.5t-95 97.5t-34 148t34 147.5t95 97.5t143 35t143 -35t95 -97.5t34 -147.5t-34 -148t-95 -97.5t-143 -34.5zM309 103q56 0 87 43.5t31 121.5t-31 121.5t-87 43.5t-87 -43.5t-31 -121.5t31 -121.5t87 -43.5zM366 600q-23 0 -40 7t-36 23
q-11 9 -19.5 13.5t-19.5 4.5q-15 0 -25.5 -11t-12.5 -42h-75q1 65 30 103.5t80 38.5q24 0 43 -7t39 -23q12 -9 20.5 -13.5t17.5 -4.5q16 0 26 11.5t12 43.5h74q-1 -66 -30.5 -105t-83.5 -39z" />
    <glyph glyph-name="odieresis" unicode="&#xf6;" horiz-adv-x="618" 
d="M309 -12q-82 0 -143 34.5t-95 97.5t-34 148t34 147.5t95 97.5t143 35t143 -35t95 -97.5t34 -147.5t-34 -148t-95 -97.5t-143 -34.5zM309 103q56 0 87 43.5t31 121.5t-31 121.5t-87 43.5t-87 -43.5t-31 -121.5t31 -121.5t87 -43.5zM130 599v121h143v-121h-143zM345 599
v121h143v-121h-143z" />
    <glyph glyph-name="divide" unicode="&#xf7;" horiz-adv-x="564" 
d="M282 14q-36 0 -58.5 22.5t-22.5 57.5q0 34 22.5 57t58.5 23q37 0 59.5 -23t22.5 -57q0 -35 -22.5 -57.5t-59.5 -22.5zM282 399q-36 0 -58.5 22.5t-22.5 57.5q0 34 22.5 56.5t58.5 22.5q37 0 59.5 -22.5t22.5 -56.5q0 -35 -22.5 -57.5t-59.5 -22.5zM40 230v114h484v-114
h-484z" />
    <glyph glyph-name="oslash" unicode="&#xf8;" horiz-adv-x="618" 
d="M309 -12q-82 0 -143 34.5t-95 97.5t-34 148t34 147.5t95 97.5t143 35t143 -35t95 -97.5t34 -147.5t-34 -148t-95 -97.5t-143 -34.5zM309 103q56 0 87 43.5t31 121.5t-31 121.5t-87 43.5t-87 -43.5t-31 -121.5t31 -121.5t87 -43.5zM62 -14l399 564h95l-399 -564h-95z" />
    <glyph glyph-name="ugrave" unicode="&#xf9;" horiz-adv-x="607" 
d="M242 -12q-83 0 -129.5 53.5t-46.5 149.5v345h150v-310q0 -62 19 -90.5t60 -28.5q46 0 71.5 31.5t25.5 94.5v303h150v-536h-137l-4 154l19 -4q-12 -80 -57 -121t-121 -41zM254 598l-90 147h145l59 -147h-114z" />
    <glyph glyph-name="uacute" unicode="&#xfa;" horiz-adv-x="607" 
d="M242 -12q-83 0 -129.5 53.5t-46.5 149.5v345h150v-310q0 -62 19 -90.5t60 -28.5q46 0 71.5 31.5t25.5 94.5v303h150v-536h-137l-4 154l19 -4q-12 -80 -57 -121t-121 -41zM233 591l59 148h145l-90 -148h-114z" />
    <glyph glyph-name="ucircumflex" unicode="&#xfb;" horiz-adv-x="607" 
d="M242 -12q-83 0 -129.5 53.5t-46.5 149.5v345h150v-310q0 -62 19 -90.5t60 -28.5q46 0 71.5 31.5t25.5 94.5v303h150v-536h-137l-4 154l19 -4q-12 -80 -57 -121t-121 -41zM133 591l96 153h144l96 -153h-105l-78 110h30l-78 -110h-105z" />
    <glyph glyph-name="udieresis" unicode="&#xfc;" horiz-adv-x="607" 
d="M242 -12q-83 0 -129.5 53.5t-46.5 149.5v345h150v-310q0 -62 19 -90.5t60 -28.5q46 0 71.5 31.5t25.5 94.5v303h150v-536h-137l-4 154l19 -4q-12 -80 -57 -121t-121 -41zM123 599v121h143v-121h-143zM338 599v121h143v-121h-143z" />
    <glyph glyph-name="yacute" unicode="&#xfd;" horiz-adv-x="586" 
d="M110 -150v112h71q26 0 38.5 7.5t19.5 26.5l11 31h-41l-188 509h153l123 -369l115 369h153l-206 -587q-18 -53 -52 -76t-95 -23h-102zM226 591l59 148h145l-90 -148h-114z" />
    <glyph glyph-name="thorn" unicode="&#xfe;" horiz-adv-x="624" 
d="M66 -150v860h152v-220q19 27 52 42.5t81 15.5q77 0 129.5 -37t79.5 -100.5t27 -142.5q0 -78 -27 -142t-79.5 -101t-129.5 -37q-43 0 -77 15t-56 43v-196h-152zM320 114q40 0 64.5 21t36 56.5t11.5 76.5q0 43 -11.5 78.5t-36 57t-64.5 21.5q-38 0 -63 -22t-37 -57.5
t-12 -77.5q0 -41 12 -76t37 -56.5t63 -21.5z" />
    <glyph glyph-name="ydieresis" unicode="&#xff;" horiz-adv-x="586" 
d="M110 -150v112h71q26 0 38.5 7.5t19.5 26.5l11 31h-41l-188 509h153l123 -369l115 369h153l-206 -587q-18 -53 -52 -76t-95 -23h-102zM115 599v121h143v-121h-143zM330 599v121h143v-121h-143z" />
    <glyph glyph-name="Amacron" unicode="&#x100;" horiz-adv-x="730" 
d="M19 0l256 710h180l256 -710h-158l-52 151h-273l-52 -151h-157zM271 276h188l-94 274zM216 781v110h299v-110h-299z" />
    <glyph glyph-name="amacron" unicode="&#x101;" horiz-adv-x="594" 
d="M225 -12q-83 0 -135.5 38.5t-52.5 107.5q0 71 44.5 109.5t131.5 56.5l173 34q0 52 -23.5 78.5t-67.5 26.5q-43 0 -67 -19.5t-31 -57.5l-151 7q15 88 79.5 133.5t169.5 45.5q120 0 180.5 -57t60.5 -167v-183q0 -23 7.5 -30.5t22.5 -7.5h15v-103q-7 -2 -22.5 -4t-30.5 -2
q-32 0 -59.5 11t-44.5 37.5t-17 75.5l13 -10q-10 -36 -35.5 -63t-66 -42t-93.5 -15zM261 91q37 0 65 14.5t44 42.5t16 66v26l-122 -26q-36 -7 -54.5 -23.5t-18.5 -42.5q0 -27 18 -42t52 -15zM147 607v110h299v-110h-299z" />
    <glyph glyph-name="Abreve" unicode="&#x102;" horiz-adv-x="730" 
d="M19 0l256 710h180l256 -710h-158l-52 151h-273l-52 -151h-157zM271 276h188l-94 274zM366 766q-70 0 -112 38.5t-45 108.5h87q3 -34 21.5 -49.5t48.5 -15.5t48 15.5t21 49.5h87q-3 -70 -45 -108.5t-111 -38.5z" />
    <glyph glyph-name="abreve" unicode="&#x103;" horiz-adv-x="594" 
d="M225 -12q-83 0 -135.5 38.5t-52.5 107.5q0 71 44.5 109.5t131.5 56.5l173 34q0 52 -23.5 78.5t-67.5 26.5q-43 0 -67 -19.5t-31 -57.5l-151 7q15 88 79.5 133.5t169.5 45.5q120 0 180.5 -57t60.5 -167v-183q0 -23 7.5 -30.5t22.5 -7.5h15v-103q-7 -2 -22.5 -4t-30.5 -2
q-32 0 -59.5 11t-44.5 37.5t-17 75.5l13 -10q-10 -36 -35.5 -63t-66 -42t-93.5 -15zM261 91q37 0 65 14.5t44 42.5t16 66v26l-122 -26q-36 -7 -54.5 -23.5t-18.5 -42.5q0 -27 18 -42t52 -15zM297 592q-70 0 -112 38.5t-45 108.5h87q3 -34 21.5 -49.5t48.5 -15.5t48 15.5
t21 49.5h87q-3 -70 -45 -108.5t-111 -38.5z" />
    <glyph glyph-name="Aogonek" unicode="&#x104;" horiz-adv-x="730" 
d="M19 0l256 710h180l256 -710h-158l-52 151h-273l-52 -151h-157zM271 276h188l-94 274zM641 -217q-54 0 -83.5 22t-29.5 63q0 31 15.5 59.5t34.5 52.5l33 44l100 -24l-30 -40q-15 -20 -23.5 -35t-8.5 -28q0 -12 7.5 -18.5t18.5 -6.5q13 0 25 4t20 9l28 -76
q-14 -11 -44.5 -18.5t-62.5 -7.5z" />
    <glyph glyph-name="aogonek" unicode="&#x105;" horiz-adv-x="594" 
d="M225 -12q-83 0 -135.5 38.5t-52.5 107.5q0 71 44.5 109.5t131.5 56.5l173 34q0 52 -23.5 78.5t-67.5 26.5q-43 0 -67 -19.5t-31 -57.5l-151 7q15 88 79.5 133.5t169.5 45.5q120 0 180.5 -57t60.5 -167v-183q0 -23 7.5 -30.5t22.5 -7.5h15v-103q-7 -2 -22.5 -4t-30.5 -2
q-32 0 -59.5 11t-44.5 37.5t-17 75.5l13 -10q-10 -36 -35.5 -63t-66 -42t-93.5 -15zM261 91q37 0 65 14.5t44 42.5t16 66v26l-122 -26q-36 -7 -54.5 -23.5t-18.5 -42.5q0 -27 18 -42t52 -15zM511 -217q-54 0 -83.5 22t-29.5 63q0 31 15.5 59.5t34.5 52.5l33 44l100 -24
l-30 -40q-15 -20 -23.5 -35t-8.5 -28q0 -12 7.5 -18.5t18.5 -6.5q13 0 25 4t20 9l28 -76q-14 -11 -44.5 -18.5t-62.5 -7.5z" />
    <glyph glyph-name="Cacute" unicode="&#x106;" horiz-adv-x="734" 
d="M375 -16q-97 0 -172.5 44t-118 127t-42.5 199q0 113 41 196.5t117 129.5t178 46q139 0 216.5 -68.5t99.5 -195.5l-158 -6q-12 67 -52 104.5t-106 37.5q-57 0 -97 -30t-61 -85t-21 -129q0 -75 21.5 -129.5t61.5 -83.5t95 -29q72 0 111.5 40.5t49.5 112.5l159 -6
q-14 -87 -55 -148t-107.5 -94t-159.5 -33zM309 765l59 148h145l-90 -148h-114z" />
    <glyph glyph-name="cacute" unicode="&#x107;" horiz-adv-x="598" 
d="M309 -12q-82 0 -143 34.5t-95 97.5t-34 148t34 147.5t95 97.5t143 35q71 0 127.5 -25t91.5 -72t43 -113l-155 -7q-7 50 -35.5 75.5t-71.5 25.5q-56 0 -87 -43t-31 -121t31 -121.5t87 -43.5q43 0 72 26.5t35 80.5l155 -6q-7 -66 -41.5 -114.5t-91 -75t-129.5 -26.5z
M241 591l59 148h145l-90 -148h-114z" />
    <glyph glyph-name="Ccircumflex" unicode="&#x108;" horiz-adv-x="734" 
d="M375 -16q-97 0 -172.5 44t-118 127t-42.5 199q0 113 41 196.5t117 129.5t178 46q139 0 216.5 -68.5t99.5 -195.5l-158 -6q-12 67 -52 104.5t-106 37.5q-57 0 -97 -30t-61 -85t-21 -129q0 -75 21.5 -129.5t61.5 -83.5t95 -29q72 0 111.5 40.5t49.5 112.5l159 -6
q-14 -87 -55 -148t-107.5 -94t-159.5 -33zM209 765l96 153h144l96 -153h-105l-78 110h30l-78 -110h-105z" />
    <glyph glyph-name="ccircumflex" unicode="&#x109;" horiz-adv-x="598" 
d="M309 -12q-82 0 -143 34.5t-95 97.5t-34 148t34 147.5t95 97.5t143 35q71 0 127.5 -25t91.5 -72t43 -113l-155 -7q-7 50 -35.5 75.5t-71.5 25.5q-56 0 -87 -43t-31 -121t31 -121.5t87 -43.5q43 0 72 26.5t35 80.5l155 -6q-7 -66 -41.5 -114.5t-91 -75t-129.5 -26.5z
M141 591l96 153h144l96 -153h-105l-78 110h30l-78 -110h-105z" />
    <glyph glyph-name="Cdotaccent" unicode="&#x10a;" horiz-adv-x="734" 
d="M375 -16q-97 0 -172.5 44t-118 127t-42.5 199q0 113 41 196.5t117 129.5t178 46q139 0 216.5 -68.5t99.5 -195.5l-158 -6q-12 67 -52 104.5t-106 37.5q-57 0 -97 -30t-61 -85t-21 -129q0 -75 21.5 -129.5t61.5 -83.5t95 -29q72 0 111.5 40.5t49.5 112.5l159 -6
q-14 -87 -55 -148t-107.5 -94t-159.5 -33zM300 776v120h155v-120h-155z" />
    <glyph glyph-name="cdotaccent" unicode="&#x10b;" horiz-adv-x="598" 
d="M309 -12q-82 0 -143 34.5t-95 97.5t-34 148t34 147.5t95 97.5t143 35q71 0 127.5 -25t91.5 -72t43 -113l-155 -7q-7 50 -35.5 75.5t-71.5 25.5q-56 0 -87 -43t-31 -121t31 -121.5t87 -43.5q43 0 72 26.5t35 80.5l155 -6q-7 -66 -41.5 -114.5t-91 -75t-129.5 -26.5z
M232 602v120h155v-120h-155z" />
    <glyph glyph-name="Ccaron" unicode="&#x10c;" horiz-adv-x="734" 
d="M375 -16q-97 0 -172.5 44t-118 127t-42.5 199q0 113 41 196.5t117 129.5t178 46q139 0 216.5 -68.5t99.5 -195.5l-158 -6q-12 67 -52 104.5t-106 37.5q-57 0 -97 -30t-61 -85t-21 -129q0 -75 21.5 -129.5t61.5 -83.5t95 -29q72 0 111.5 40.5t49.5 112.5l159 -6
q-14 -87 -55 -148t-107.5 -94t-159.5 -33zM209 918h105l78 -109h-30l78 109h105l-96 -153h-144z" />
    <glyph glyph-name="ccaron" unicode="&#x10d;" horiz-adv-x="598" 
d="M309 -12q-82 0 -143 34.5t-95 97.5t-34 148t34 147.5t95 97.5t143 35q71 0 127.5 -25t91.5 -72t43 -113l-155 -7q-7 50 -35.5 75.5t-71.5 25.5q-56 0 -87 -43t-31 -121t31 -121.5t87 -43.5q43 0 72 26.5t35 80.5l155 -6q-7 -66 -41.5 -114.5t-91 -75t-129.5 -26.5z
M141 744h105l78 -109h-30l78 109h105l-96 -153h-144z" />
    <glyph glyph-name="Dcaron" unicode="&#x10e;" horiz-adv-x="720" 
d="M74 0v710h245q173 0 266 -92.5t93 -263.5q0 -170 -91.5 -262t-261.5 -92h-251zM226 128h93q103 0 152.5 55.5t49.5 171.5t-49.5 171.5t-152.5 55.5h-93v-454zM157 918h105l78 -109h-30l78 109h105l-96 -153h-144z" />
    <glyph glyph-name="dcaron" unicode="&#x10f;" horiz-adv-x="741" 
d="M257 -12q-68 0 -117.5 34.5t-76 97t-26.5 148.5t27 148.5t76.5 97t116.5 34.5q57 0 98.5 -23.5t62.5 -64.5v250h150v-710h-143l-3 79q-22 -43 -65.5 -67t-99.5 -24zM306 103q36 0 61 19t38 55.5t13 90.5q0 55 -13 91.5t-38 55t-61 18.5q-53 0 -84 -44.5t-31 -120.5
q0 -75 31.5 -120t83.5 -45zM614 424l29 286h129l-54 -286h-104z" />
    <glyph glyph-name="Dcroat" unicode="&#x110;" horiz-adv-x="720" 
d="M74 0v710h245q173 0 266 -92.5t93 -263.5q0 -170 -91.5 -262t-261.5 -92h-251zM226 128h93q103 0 152.5 55.5t49.5 171.5t-49.5 171.5t-152.5 55.5h-93v-454zM9 298v115h402v-115h-402z" />
    <glyph glyph-name="dcroat" unicode="&#x111;" 
d="M257 -12q-68 0 -117.5 34.5t-76 97t-26.5 148.5t27 148.5t76.5 97t116.5 34.5q57 0 98.5 -23.5t62.5 -64.5v250h150v-710h-143l-3 79q-22 -43 -65.5 -67t-99.5 -24zM306 103q36 0 61 19t38 55.5t13 90.5q0 55 -13 91.5t-38 55t-61 18.5q-53 0 -84 -44.5t-31 -120.5
q0 -75 31.5 -120t83.5 -45zM287 576v87h348v-87h-348z" />
    <glyph glyph-name="Emacron" unicode="&#x112;" horiz-adv-x="622" 
d="M74 0v710h494v-128h-342v-163h330v-126h-330v-165h350v-128h-502zM172 781v110h299v-110h-299z" />
    <glyph glyph-name="emacron" unicode="&#x113;" horiz-adv-x="605" 
d="M307 -12q-82 0 -142.5 34.5t-94 97.5t-33.5 148t33.5 147.5t93.5 97.5t142 35q80 0 139 -35t91.5 -100t32.5 -155v-30h-377q3 -64 34.5 -95t83.5 -31q38 0 63.5 16t36.5 49l151 -9q-21 -80 -89 -125t-165 -45zM192 320h223q-3 59 -32.5 88t-76.5 29t-77.5 -30.5
t-36.5 -86.5zM160 605v110h299v-110h-299z" />
    <glyph glyph-name="Edotaccent" unicode="&#x116;" horiz-adv-x="622" 
d="M74 0v710h494v-128h-342v-163h330v-126h-330v-165h350v-128h-502zM244 776v120h155v-120h-155z" />
    <glyph glyph-name="edotaccent" unicode="&#x117;" horiz-adv-x="605" 
d="M307 -12q-82 0 -142.5 34.5t-94 97.5t-33.5 148t33.5 147.5t93.5 97.5t142 35q80 0 139 -35t91.5 -100t32.5 -155v-30h-377q3 -64 34.5 -95t83.5 -31q38 0 63.5 16t36.5 49l151 -9q-21 -80 -89 -125t-165 -45zM192 320h223q-3 59 -32.5 88t-76.5 29t-77.5 -30.5
t-36.5 -86.5zM232 600v120h155v-120h-155z" />
    <glyph glyph-name="Eogonek" unicode="&#x118;" horiz-adv-x="622" 
d="M74 0v710h494v-128h-342v-163h330v-126h-330v-165h350v-128h-502zM506 -217q-54 0 -83.5 22t-29.5 63q0 31 15.5 59.5t34.5 52.5l33 44l100 -24l-30 -40q-15 -20 -23.5 -35t-8.5 -28q0 -12 7.5 -18.5t18.5 -6.5q13 0 25 4t20 9l28 -76q-14 -11 -44.5 -18.5t-62.5 -7.5z
" />
    <glyph glyph-name="eogonek" unicode="&#x119;" horiz-adv-x="605" 
d="M390 -217q-53 0 -82.5 24t-29.5 67q0 32 12 57t32 48l90 104l105 -12l-88 -105q-15 -20 -23 -36.5t-8 -29.5q0 -15 8 -21.5t18 -6.5q12 0 23.5 4t19.5 9l27 -76q-13 -11 -42.5 -18.5t-61.5 -7.5zM307 -12q-82 0 -142.5 34.5t-94 97.5t-33.5 148t33.5 147.5t93.5 97.5
t142 35q80 0 139 -35t91.5 -100t32.5 -155v-30h-377q3 -64 34.5 -95t83.5 -31q38 0 63.5 16t36.5 49l151 -9q-21 -80 -89 -125t-165 -45zM192 320h223q-3 59 -32.5 88t-76.5 29t-77.5 -30.5t-36.5 -86.5z" />
    <glyph glyph-name="Ecaron" unicode="&#x11a;" horiz-adv-x="622" 
d="M74 0v710h494v-128h-342v-163h330v-126h-330v-165h350v-128h-502zM154 918h105l78 -109h-30l78 109h105l-96 -153h-144z" />
    <glyph glyph-name="ecaron" unicode="&#x11b;" horiz-adv-x="605" 
d="M307 -12q-82 0 -142.5 34.5t-94 97.5t-33.5 148t33.5 147.5t93.5 97.5t142 35q80 0 139 -35t91.5 -100t32.5 -155v-30h-377q3 -64 34.5 -95t83.5 -31q38 0 63.5 16t36.5 49l151 -9q-21 -80 -89 -125t-165 -45zM192 320h223q-3 59 -32.5 88t-76.5 29t-77.5 -30.5
t-36.5 -86.5zM141 742h105l78 -109h-30l78 109h105l-96 -153h-144z" />
    <glyph glyph-name="Gcircumflex" unicode="&#x11c;" horiz-adv-x="738" 
d="M370 -16q-103 0 -176 47t-112.5 130.5t-39.5 192.5q0 107 40 191t115.5 132.5t181.5 48.5q92 0 155.5 -30.5t101.5 -86.5t53 -132l-157 -7q-11 59 -46.5 93.5t-105.5 34.5q-61 0 -101.5 -32t-60 -87t-19.5 -125q0 -71 19.5 -125.5t60 -85.5t104.5 -31q47 0 81.5 19t54 52
t23.5 75h-162v111h311v-369h-94l-8 152l18 -8q-10 -47 -44 -83t-83.5 -56.5t-109.5 -20.5zM212 765l96 153h144l96 -153h-105l-78 110h30l-78 -110h-105z" />
    <glyph glyph-name="gcircumflex" unicode="&#x11d;" 
d="M306 -162q-77 0 -128.5 19t-82 53t-42.5 78l154 11q8 -26 30.5 -41t68.5 -15q54 0 82.5 25.5t28.5 81.5v57q-19 -37 -61 -59.5t-94 -22.5q-66 0 -117 32.5t-79.5 91t-28.5 137.5q0 77 28.5 136t79 92.5t115.5 33.5q59 0 99.5 -26t61.5 -69v83h147v-483q0 -72 -33 -119.5
t-92 -71.5t-137 -24zM305 136q52 0 82.5 40t30.5 111q0 47 -13.5 81t-39 52t-60.5 18q-54 0 -84 -41t-30 -110q0 -70 31 -110.5t83 -40.5zM141 591l96 153h144l96 -153h-105l-78 110h30l-78 -110h-105z" />
    <glyph glyph-name="Gbreve" unicode="&#x11e;" horiz-adv-x="738" 
d="M370 -16q-103 0 -176 47t-112.5 130.5t-39.5 192.5q0 107 40 191t115.5 132.5t181.5 48.5q92 0 155.5 -30.5t101.5 -86.5t53 -132l-157 -7q-11 59 -46.5 93.5t-105.5 34.5q-61 0 -101.5 -32t-60 -87t-19.5 -125q0 -71 19.5 -125.5t60 -85.5t104.5 -31q47 0 81.5 19t54 52
t23.5 75h-162v111h311v-369h-94l-8 152l18 -8q-10 -47 -44 -83t-83.5 -56.5t-109.5 -20.5zM381 766q-70 0 -112 38.5t-45 108.5h87q3 -34 21.5 -49.5t48.5 -15.5t48 15.5t21 49.5h87q-3 -70 -45 -108.5t-111 -38.5z" />
    <glyph glyph-name="gbreve" unicode="&#x11f;" 
d="M306 -162q-77 0 -128.5 19t-82 53t-42.5 78l154 11q8 -26 30.5 -41t68.5 -15q54 0 82.5 25.5t28.5 81.5v57q-19 -37 -61 -59.5t-94 -22.5q-66 0 -117 32.5t-79.5 91t-28.5 137.5q0 77 28.5 136t79 92.5t115.5 33.5q59 0 99.5 -26t61.5 -69v83h147v-483q0 -72 -33 -119.5
t-92 -71.5t-137 -24zM305 136q52 0 82.5 40t30.5 111q0 47 -13.5 81t-39 52t-60.5 18q-54 0 -84 -41t-30 -110q0 -70 31 -110.5t83 -40.5zM310 592q-70 0 -112 38.5t-45 108.5h87q3 -34 21.5 -49.5t48.5 -15.5t48 15.5t21 49.5h87q-3 -70 -45 -108.5t-111 -38.5z" />
    <glyph glyph-name="Gdotaccent" unicode="&#x120;" horiz-adv-x="738" 
d="M370 -16q-103 0 -176 47t-112.5 130.5t-39.5 192.5q0 107 40 191t115.5 132.5t181.5 48.5q92 0 155.5 -30.5t101.5 -86.5t53 -132l-157 -7q-11 59 -46.5 93.5t-105.5 34.5q-61 0 -101.5 -32t-60 -87t-19.5 -125q0 -71 19.5 -125.5t60 -85.5t104.5 -31q47 0 81.5 19t54 52
t23.5 75h-162v111h311v-369h-94l-8 152l18 -8q-10 -47 -44 -83t-83.5 -56.5t-109.5 -20.5zM303 776v120h155v-120h-155z" />
    <glyph glyph-name="gdotaccent" unicode="&#x121;" 
d="M306 -162q-77 0 -128.5 19t-82 53t-42.5 78l154 11q8 -26 30.5 -41t68.5 -15q54 0 82.5 25.5t28.5 81.5v57q-19 -37 -61 -59.5t-94 -22.5q-66 0 -117 32.5t-79.5 91t-28.5 137.5q0 77 28.5 136t79 92.5t115.5 33.5q59 0 99.5 -26t61.5 -69v83h147v-483q0 -72 -33 -119.5
t-92 -71.5t-137 -24zM305 136q52 0 82.5 40t30.5 111q0 47 -13.5 81t-39 52t-60.5 18q-54 0 -84 -41t-30 -110q0 -70 31 -110.5t83 -40.5zM232 602v120h155v-120h-155z" />
    <glyph glyph-name="uni0122" unicode="&#x122;" horiz-adv-x="738" 
d="M370 -16q-103 0 -176 47t-112.5 130.5t-39.5 192.5q0 107 40 191t115.5 132.5t181.5 48.5q92 0 155.5 -30.5t101.5 -86.5t53 -132l-157 -7q-11 59 -46.5 93.5t-105.5 34.5q-61 0 -101.5 -32t-60 -87t-19.5 -125q0 -71 19.5 -125.5t60 -85.5t104.5 -31q47 0 81.5 19t54 52
t23.5 75h-162v111h311v-369h-94l-8 152l18 -8q-10 -47 -44 -83t-83.5 -56.5t-109.5 -20.5zM301 -253l52 88h-35v116h130v-105l-59 -99h-88z" />
    <glyph glyph-name="uni0123" unicode="&#x123;" 
d="M306 -162q-77 0 -128.5 19t-82 53t-42.5 78l154 11q8 -26 30.5 -41t68.5 -15q54 0 82.5 25.5t28.5 81.5v57q-19 -37 -61 -59.5t-94 -22.5q-66 0 -117 32.5t-79.5 91t-28.5 137.5q0 77 28.5 136t79 92.5t115.5 33.5q59 0 99.5 -26t61.5 -69v83h147v-483q0 -72 -33 -119.5
t-92 -71.5t-137 -24zM305 136q52 0 82.5 40t30.5 111q0 47 -13.5 81t-39 52t-60.5 18q-54 0 -84 -41t-30 -110q0 -70 31 -110.5t83 -40.5zM245 592v104l59 100h88l-52 -88h35v-116h-130z" />
    <glyph glyph-name="Hcircumflex" unicode="&#x124;" horiz-adv-x="721" 
d="M74 0v710h152v-337l-67 48h404l-68 -48v337h152v-710h-152v341l68 -48h-404l67 48v-341h-152zM193 765l96 153h144l96 -153h-105l-78 110h30l-78 -110h-105z" />
    <glyph glyph-name="hcircumflex" unicode="&#x125;" horiz-adv-x="611" 
d="M66 0v710h150v-299h-20q8 47 31.5 77t59 45t77.5 15q60 0 100 -26t60.5 -72t20.5 -105v-345h-150v309q0 60 -18.5 90t-62.5 30q-46 0 -72 -31t-26 -93v-305h-150zM-26 745l96 153h144l96 -153h-105l-78 110h30l-78 -110h-105z" />
    <glyph glyph-name="Hbar" unicode="&#x126;" horiz-adv-x="721" 
d="M74 0v710h152v-337l-67 48h404l-68 -48v337h152v-710h-152v341l68 -48h-404l67 48v-341h-152zM3 520v111h716v-111h-716z" />
    <glyph glyph-name="hbar" unicode="&#x127;" horiz-adv-x="611" 
d="M66 0v710h150v-299h-20q8 47 31.5 77t59 45t77.5 15q60 0 100 -26t60.5 -72t20.5 -105v-345h-150v309q0 60 -18.5 90t-62.5 30q-46 0 -72 -31t-26 -93v-305h-150zM-2 576v87h348v-87h-348z" />
    <glyph glyph-name="Itilde" unicode="&#x128;" horiz-adv-x="300" 
d="M74 0v710h152v-710h-152zM206 774q-23 0 -40 7t-36 23q-11 9 -19.5 13.5t-19.5 4.5q-15 0 -25.5 -11t-12.5 -42h-75q1 65 30 103.5t80 38.5q24 0 43 -7t39 -23q12 -9 20.5 -13.5t17.5 -4.5q16 0 26 11.5t12 43.5h74q-1 -66 -30.5 -105t-83.5 -39z" />
    <glyph glyph-name="itilde" unicode="&#x129;" horiz-adv-x="281" 
d="M66 0v536h150v-536h-150zM197 600q-23 0 -40 7t-36 23q-11 9 -19.5 13.5t-19.5 4.5q-15 0 -25.5 -11t-12.5 -42h-75q1 65 30 103.5t80 38.5q24 0 43 -7t39 -23q12 -9 20.5 -13.5t17.5 -4.5q16 0 26 11.5t12 43.5h74q-1 -66 -30.5 -105t-83.5 -39z" />
    <glyph glyph-name="Imacron" unicode="&#x12a;" horiz-adv-x="300" 
d="M74 0v710h152v-710h-152zM1 781v110h299v-110h-299z" />
    <glyph glyph-name="imacron" unicode="&#x12b;" horiz-adv-x="281" 
d="M66 0v536h150v-536h-150zM-9 607v110h299v-110h-299z" />
    <glyph glyph-name="Iogonek" unicode="&#x12e;" horiz-adv-x="300" 
d="M74 0v710h152v-710h-152zM156 -217q-54 0 -83.5 22t-29.5 63q0 31 15.5 59.5t34.5 52.5l33 44l100 -24l-30 -40q-15 -20 -23.5 -35t-8.5 -28q0 -12 7.5 -18.5t18.5 -6.5q13 0 25 4t20 9l28 -76q-14 -11 -44.5 -18.5t-62.5 -7.5z" />
    <glyph glyph-name="iogonek" unicode="&#x12f;" horiz-adv-x="281" 
d="M66 0v536h150v-536h-150zM63 602v120h155v-120h-155zM146 -217q-54 0 -83.5 22t-29.5 63q0 31 15.5 59.5t34.5 52.5l33 44l100 -24l-30 -40q-15 -20 -23.5 -35t-8.5 -28q0 -12 7.5 -18.5t18.5 -6.5q13 0 25 4t20 9l28 -76q-14 -11 -44.5 -18.5t-62.5 -7.5z" />
    <glyph glyph-name="Idotaccent" unicode="&#x130;" horiz-adv-x="300" 
d="M74 0v710h152v-710h-152zM73 776v120h155v-120h-155z" />
    <glyph glyph-name="dotlessi" unicode="&#x131;" horiz-adv-x="281" 
d="M66 0v536h150v-536h-150z" />
    <glyph glyph-name="IJ" unicode="&#x132;" horiz-adv-x="913" 
d="M74 0v710h152v-710h-152zM595 -16q-83 0 -140.5 35t-88 95.5t-31.5 138.5l153 7q1 -76 29 -112t78 -36q51 0 79 35t28 108v455h152v-455q0 -83 -32.5 -144t-90.5 -94t-136 -33z" />
    <glyph glyph-name="ij" unicode="&#x133;" horiz-adv-x="585" 
d="M66 0v536h150v-536h-150zM63 602v120h155v-120h-155zM250 -150v112h59q30 0 44.5 12t14.5 48v514h151v-518q0 -90 -40.5 -129t-138.5 -39h-90zM367 602v120h155v-120h-155z" />
    <glyph glyph-name="Jcircumflex" unicode="&#x134;" horiz-adv-x="627" 
d="M309 -16q-83 0 -140.5 35t-88 95.5t-31.5 138.5l153 7q1 -76 29 -112t78 -36q51 0 79 35t28 108v455h152v-455q0 -83 -32.5 -144t-90.5 -94t-136 -33zM324 765l96 153h144l96 -153h-105l-78 110h30l-78 -110h-105z" />
    <glyph glyph-name="jcircumflex" unicode="&#x135;" horiz-adv-x="331" 
d="M-3 -150v112h59q30 0 44.5 12t14.5 48v514h151v-518q0 -90 -40.5 -129t-138.5 -39h-90zM23 591l96 153h144l96 -153h-105l-78 110h30l-78 -110h-105z" />
    <glyph glyph-name="uni0136" unicode="&#x136;" horiz-adv-x="689" 
d="M74 0v710h152v-310l258 310h177l-261 -313l277 -397h-173l-204 295l-74 -86v-209h-152zM275 -253l52 88h-35v116h130v-105l-59 -99h-88z" />
    <glyph glyph-name="uni0137" unicode="&#x137;" horiz-adv-x="647" 
d="M66 0v710h150v-394l199 220h180l-208 -221l214 -315h-164l-147 230l-74 -79v-151h-150zM235 -253l52 88h-35v116h130v-105l-59 -99h-88z" />
    <glyph glyph-name="Lacute" unicode="&#x139;" horiz-adv-x="589" 
d="M74 0v710h152v-669l-84 87h411v-128h-479zM82 765l59 148h145l-90 -148h-114z" />
    <glyph glyph-name="lacute" unicode="&#x13a;" horiz-adv-x="313" 
d="M206 0q-66 0 -103 33t-37 107v570h150v-554q0 -24 11 -34t32 -10h36v-112h-89zM73 743l59 148h145l-90 -148h-114z" />
    <glyph glyph-name="uni013B" unicode="&#x13b;" horiz-adv-x="589" 
d="M74 0v710h152v-669l-84 87h411v-128h-479zM232 -253l52 88h-35v116h130v-105l-59 -99h-88z" />
    <glyph glyph-name="uni013C" unicode="&#x13c;" horiz-adv-x="313" 
d="M206 0q-66 0 -103 33t-37 107v570h150v-554q0 -24 11 -34t32 -10h36v-112h-89zM102 -253l52 88h-35v116h130v-105l-59 -99h-88z" />
    <glyph glyph-name="Lcaron" unicode="&#x13d;" horiz-adv-x="589" 
d="M74 0v710h152v-669l-84 87h411v-128h-479zM382 424l29 286h129l-54 -286h-104z" />
    <glyph glyph-name="lcaron" unicode="&#x13e;" horiz-adv-x="390" 
d="M206 0q-66 0 -103 33t-37 107v570h150v-554q0 -24 11 -34t32 -10h36v-112h-89zM264 424l29 286h129l-54 -286h-104z" />
    <glyph glyph-name="Lslash" unicode="&#x141;" horiz-adv-x="589" 
d="M74 0v710h152v-669l-84 87h411v-128h-479zM5 242v102l357 173v-103z" />
    <glyph glyph-name="lslash" unicode="&#x142;" horiz-adv-x="313" 
d="M206 0q-66 0 -103 33t-37 107v570h150v-554q0 -24 11 -34t32 -10h36v-112h-89zM2 281v98l304 120v-98z" />
    <glyph glyph-name="Nacute" unicode="&#x143;" horiz-adv-x="750" 
d="M74 0v710h168l282 -490v490h152v-710h-170l-280 473v-473h-152zM313 765l59 148h145l-90 -148h-114z" />
    <glyph glyph-name="nacute" unicode="&#x144;" horiz-adv-x="611" 
d="M66 0v536h135l6 -157l-19 5q8 60 32.5 96t61.5 52t81 16q58 0 98.5 -25t62 -70.5t21.5 -107.5v-345h-150v295q0 43 -7 73t-25 45.5t-50 15.5q-47 0 -72 -34.5t-25 -99.5v-295h-150zM237 591l59 148h145l-90 -148h-114z" />
    <glyph glyph-name="uni0145" unicode="&#x145;" horiz-adv-x="750" 
d="M74 0v710h168l282 -490v490h152v-710h-170l-280 473v-473h-152zM291 -253l52 88h-35v116h130v-105l-59 -99h-88z" />
    <glyph glyph-name="uni0146" unicode="&#x146;" horiz-adv-x="611" 
d="M66 0v536h135l6 -157l-19 5q8 60 32.5 96t61.5 52t81 16q58 0 98.5 -25t62 -70.5t21.5 -107.5v-345h-150v295q0 43 -7 73t-25 45.5t-50 15.5q-47 0 -72 -34.5t-25 -99.5v-295h-150zM223 -253l52 88h-35v116h130v-105l-59 -99h-88z" />
    <glyph glyph-name="Ncaron" unicode="&#x147;" horiz-adv-x="750" 
d="M74 0v710h168l282 -490v490h152v-710h-170l-280 473v-473h-152zM213 918h105l78 -109h-30l78 109h105l-96 -153h-144z" />
    <glyph glyph-name="ncaron" unicode="&#x148;" horiz-adv-x="611" 
d="M66 0v536h135l6 -157l-19 5q8 60 32.5 96t61.5 52t81 16q58 0 98.5 -25t62 -70.5t21.5 -107.5v-345h-150v295q0 43 -7 73t-25 45.5t-50 15.5q-47 0 -72 -34.5t-25 -99.5v-295h-150zM137 744h105l78 -109h-30l78 109h105l-96 -153h-144z" />
    <glyph glyph-name="Eng" unicode="&#x14a;" horiz-adv-x="750" 
d="M74 0v710h168l282 -489v489h152v-710h-170l-280 473v-473h-152zM385 -162v104h94q27 0 40 11.5t13 38.5v122h144v-120q0 -73 -40.5 -114.5t-120.5 -41.5h-130z" />
    <glyph glyph-name="eng" unicode="&#x14b;" horiz-adv-x="611" 
d="M276 -150v102h60q27 0 43 15.5t16 41.5v110h150v-122q0 -42 -20.5 -75.5t-58 -52.5t-89.5 -19h-101zM66 0v536h135l6 -157l-19 5q8 60 32.5 96t61.5 52t81 16q58 0 98.5 -25t62 -70.5t21.5 -107.5v-345h-150v295q0 43 -7 73t-25 45.5t-50 15.5q-47 0 -72 -34.5t-25 -99.5
v-295h-150z" />
    <glyph glyph-name="Omacron" unicode="&#x14c;" horiz-adv-x="776" 
d="M388 -16q-108 0 -185.5 45t-119 128t-41.5 197t41.5 197.5t119 129t185.5 45.5t185.5 -45.5t119 -129t41.5 -197.5t-41.5 -197t-119 -128t-185.5 -45zM387 112q60 0 102.5 28.5t65 82.5t22.5 131t-22.5 131.5t-65 83.5t-102.5 29q-59 0 -101 -29t-64.5 -83.5
t-22.5 -131.5t22.5 -131t65 -82.5t100.5 -28.5zM238 781v110h299v-110h-299z" />
    <glyph glyph-name="omacron" unicode="&#x14d;" horiz-adv-x="618" 
d="M309 -12q-82 0 -143 34.5t-95 97.5t-34 148t34 147.5t95 97.5t143 35t143 -35t95 -97.5t34 -147.5t-34 -148t-95 -97.5t-143 -34.5zM309 103q56 0 87 43.5t31 121.5t-31 121.5t-87 43.5t-87 -43.5t-31 -121.5t31 -121.5t87 -43.5zM160 607v110h299v-110h-299z" />
    <glyph glyph-name="Ohungarumlaut" unicode="&#x150;" horiz-adv-x="776" 
d="M388 -16q-108 0 -185.5 45t-119 128t-41.5 197t41.5 197.5t119 129t185.5 45.5t185.5 -45.5t119 -129t41.5 -197.5t-41.5 -197t-119 -128t-185.5 -45zM387 112q60 0 102.5 28.5t65 82.5t22.5 131t-22.5 131.5t-65 83.5t-102.5 29q-59 0 -101 -29t-64.5 -83.5
t-22.5 -131.5t22.5 -131t65 -82.5t100.5 -28.5zM242 765l59 148h145l-90 -148h-114zM419 765l59 148h145l-90 -148h-114z" />
    <glyph glyph-name="ohungarumlaut" unicode="&#x151;" horiz-adv-x="618" 
d="M309 -12q-82 0 -143 34.5t-95 97.5t-34 148t34 147.5t95 97.5t143 35t143 -35t95 -97.5t34 -147.5t-34 -148t-95 -97.5t-143 -34.5zM309 103q56 0 87 43.5t31 121.5t-31 121.5t-87 43.5t-87 -43.5t-31 -121.5t31 -121.5t87 -43.5zM163 591l59 148h145l-90 -148h-114z
M341 591l59 148h145l-90 -148h-114z" />
    <glyph glyph-name="OE" unicode="&#x152;" horiz-adv-x="1120" 
d="M386 -16q-104 0 -181 45t-120 128t-43 197q0 117 42.5 199.5t120 127.5t181.5 45q68 0 121.5 -22t92.5 -63v69h466v-128h-314v-163h302v-126h-302v-165h322v-128h-474v69q-39 -41 -92.5 -63t-121.5 -22zM386 112q66 0 107.5 31.5t62 86.5t20.5 124q0 70 -20 125t-62 87
t-108 32q-64 0 -105.5 -32t-61.5 -87t-20 -125q0 -69 20.5 -124t62 -86.5t104.5 -31.5z" />
    <glyph glyph-name="oe" unicode="&#x153;" horiz-adv-x="998" 
d="M309 -12q-82 0 -143 34.5t-95 97.5t-34 148t34 147.5t95 97.5t143 35t143 -35t95 -97.5t34 -147.5t-34 -148t-95 -97.5t-143 -34.5zM309 103q56 0 87 43.5t31 121.5t-31 121.5t-87 43.5t-87 -43.5t-31 -121.5t31 -121.5t87 -43.5zM699 -12q-82 0 -142.5 34.5t-94 97.5
t-33.5 148t33.5 147.5t93.5 97.5t142 35q80 0 139 -35t91.5 -100t32.5 -155v-30h-377q3 -64 34.5 -95t83.5 -31q38 0 63.5 16t36.5 49l151 -9q-21 -80 -89 -125t-165 -45zM584 320h223q-3 59 -32.5 88t-76.5 29t-77.5 -30.5t-36.5 -86.5z" />
    <glyph glyph-name="Racute" unicode="&#x154;" horiz-adv-x="697" 
d="M74 0v710h311q78 0 135.5 -26t88.5 -73.5t31 -112.5q0 -49 -20.5 -87t-56 -62t-81.5 -30l-3 9q71 0 108 -30.5t42 -93.5l18 -204h-155l-13 180q-3 41 -25.5 60.5t-76.5 19.5h-151v-260h-152zM226 387h142q55 0 85.5 25.5t30.5 72.5q0 48 -31 72.5t-90 24.5h-137v-195z
M277 765l59 148h145l-90 -148h-114z" />
    <glyph glyph-name="racute" unicode="&#x155;" horiz-adv-x="425" 
d="M66 0v536h142l5 -156l-11 3q13 81 46 117t91 36h49v-124h-49q-42 0 -69 -11t-40.5 -35t-13.5 -65v-301h-150zM163 591l59 148h145l-90 -148h-114z" />
    <glyph glyph-name="uni0156" unicode="&#x156;" horiz-adv-x="697" 
d="M74 0v710h311q78 0 135.5 -26t88.5 -73.5t31 -112.5q0 -49 -20.5 -87t-56 -62t-81.5 -30l-3 9q71 0 108 -30.5t42 -93.5l18 -204h-155l-13 180q-3 41 -25.5 60.5t-76.5 19.5h-151v-260h-152zM226 387h142q55 0 85.5 25.5t30.5 72.5q0 48 -31 72.5t-90 24.5h-137v-195z
M278 -253l52 88h-35v116h130v-105l-59 -99h-88z" />
    <glyph glyph-name="uni0157" unicode="&#x157;" horiz-adv-x="425" 
d="M66 0v536h142l5 -156l-11 3q13 81 46 117t91 36h49v-124h-49q-42 0 -69 -11t-40.5 -35t-13.5 -65v-301h-150zM59 -253l52 88h-35v116h130v-105l-59 -99h-88z" />
    <glyph glyph-name="Rcaron" unicode="&#x158;" horiz-adv-x="697" 
d="M74 0v710h311q78 0 135.5 -26t88.5 -73.5t31 -112.5q0 -49 -20.5 -87t-56 -62t-81.5 -30l-3 9q71 0 108 -30.5t42 -93.5l18 -204h-155l-13 180q-3 41 -25.5 60.5t-76.5 19.5h-151v-260h-152zM226 387h142q55 0 85.5 25.5t30.5 72.5q0 48 -31 72.5t-90 24.5h-137v-195z
M177 918h105l78 -109h-30l78 109h105l-96 -153h-144z" />
    <glyph glyph-name="rcaron" unicode="&#x159;" horiz-adv-x="425" 
d="M66 0v536h142l5 -156l-11 3q13 81 46 117t91 36h49v-124h-49q-42 0 -69 -11t-40.5 -35t-13.5 -65v-301h-150zM63 744h105l78 -109h-30l78 109h105l-96 -153h-144z" />
    <glyph glyph-name="Sacute" unicode="&#x15a;" horiz-adv-x="681" 
d="M355 -16q-92 0 -158 31t-103 87t-42 132l153 7q6 -42 24.5 -71.5t50 -44.5t77.5 -15q38 0 64.5 9t40.5 27.5t14 45.5q0 25 -12 43.5t-46 34t-100 30.5q-91 21 -146.5 47t-80.5 65.5t-25 99.5q0 64 31.5 112t91.5 75t143 27q88 0 149 -31t95.5 -85t41.5 -124l-152 -8
q-3 37 -20 64.5t-46 42.5t-70 15q-52 0 -81.5 -23t-29.5 -60q0 -26 13.5 -43.5t45 -30.5t89.5 -25q99 -20 156.5 -50.5t81.5 -72.5t24 -96q0 -66 -33.5 -114.5t-95 -74.5t-145.5 -26zM265 765l59 148h145l-90 -148h-114z" />
    <glyph glyph-name="sacute" unicode="&#x15b;" horiz-adv-x="571" 
d="M295 -12q-83 0 -139 23.5t-85.5 64t-33.5 93.5l152 5q7 -38 32 -59t74 -21q40 0 62.5 13t22.5 40q0 17 -8 28.5t-31.5 20t-69.5 15.5q-85 15 -133 35t-68 52t-20 78q0 77 59.5 124.5t178.5 47.5q76 0 127.5 -24t80 -65.5t35.5 -94.5l-151 -6q-3 26 -15.5 44.5t-31.5 29
t-46 10.5q-40 0 -61.5 -16.5t-21.5 -43.5q0 -20 9.5 -32.5t31.5 -20.5t59 -13q86 -12 136.5 -33.5t72.5 -53.5t22 -79q0 -52 -30 -88t-83.5 -55t-126.5 -19zM219 591l59 148h145l-90 -148h-114z" />
    <glyph glyph-name="Scircumflex" unicode="&#x15c;" horiz-adv-x="681" 
d="M355 -16q-92 0 -158 31t-103 87t-42 132l153 7q6 -42 24.5 -71.5t50 -44.5t77.5 -15q38 0 64.5 9t40.5 27.5t14 45.5q0 25 -12 43.5t-46 34t-100 30.5q-91 21 -146.5 47t-80.5 65.5t-25 99.5q0 64 31.5 112t91.5 75t143 27q88 0 149 -31t95.5 -85t41.5 -124l-152 -8
q-3 37 -20 64.5t-46 42.5t-70 15q-52 0 -81.5 -23t-29.5 -60q0 -26 13.5 -43.5t45 -30.5t89.5 -25q99 -20 156.5 -50.5t81.5 -72.5t24 -96q0 -66 -33.5 -114.5t-95 -74.5t-145.5 -26zM165 765l96 153h144l96 -153h-105l-78 110h30l-78 -110h-105z" />
    <glyph glyph-name="scircumflex" unicode="&#x15d;" horiz-adv-x="571" 
d="M295 -12q-83 0 -139 23.5t-85.5 64t-33.5 93.5l152 5q7 -38 32 -59t74 -21q40 0 62.5 13t22.5 40q0 17 -8 28.5t-31.5 20t-69.5 15.5q-85 15 -133 35t-68 52t-20 78q0 77 59.5 124.5t178.5 47.5q76 0 127.5 -24t80 -65.5t35.5 -94.5l-151 -6q-3 26 -15.5 44.5t-31.5 29
t-46 10.5q-40 0 -61.5 -16.5t-21.5 -43.5q0 -20 9.5 -32.5t31.5 -20.5t59 -13q86 -12 136.5 -33.5t72.5 -53.5t22 -79q0 -52 -30 -88t-83.5 -55t-126.5 -19zM119 591l96 153h144l96 -153h-105l-78 110h30l-78 -110h-105z" />
    <glyph glyph-name="Scedilla" unicode="&#x15e;" horiz-adv-x="681" 
d="M355 -16q-92 0 -158 31t-103 87t-42 132l153 7q6 -42 24.5 -71.5t50 -44.5t77.5 -15q38 0 64.5 9t40.5 27.5t14 45.5q0 25 -12 43.5t-46 34t-100 30.5q-91 21 -146.5 47t-80.5 65.5t-25 99.5q0 64 31.5 112t91.5 75t143 27q88 0 149 -31t95.5 -85t41.5 -124l-152 -8
q-3 37 -20 64.5t-46 42.5t-70 15q-52 0 -81.5 -23t-29.5 -60q0 -26 13.5 -43.5t45 -30.5t89.5 -25q99 -20 156.5 -50.5t81.5 -72.5t24 -96q0 -66 -33.5 -114.5t-95 -74.5t-145.5 -26zM343 -232q-50 0 -82.5 23t-45.5 60l66 28q8 -19 22 -28.5t37 -9.5q22 0 35 9.5t13 26.5
q0 18 -12.5 28.5t-52.5 10.5l-41 39l33 55h86l-27 -41q50 -5 73 -31.5t23 -63.5q0 -36 -17.5 -59.5t-45.5 -35t-64 -11.5z" />
    <glyph glyph-name="scedilla" unicode="&#x15f;" horiz-adv-x="571" 
d="M295 -12q-83 0 -139 23.5t-85.5 64t-33.5 93.5l152 5q7 -38 32 -59t74 -21q40 0 62.5 13t22.5 40q0 17 -8 28.5t-31.5 20t-69.5 15.5q-85 15 -133 35t-68 52t-20 78q0 77 59.5 124.5t178.5 47.5q76 0 127.5 -24t80 -65.5t35.5 -94.5l-151 -6q-3 26 -15.5 44.5t-31.5 29
t-46 10.5q-40 0 -61.5 -16.5t-21.5 -43.5q0 -20 9.5 -32.5t31.5 -20.5t59 -13q86 -12 136.5 -33.5t72.5 -53.5t22 -79q0 -52 -30 -88t-83.5 -55t-126.5 -19zM286 -232q-50 0 -82.5 23t-45.5 60l66 28q8 -19 22 -28.5t37 -9.5q22 0 35 9.5t13 26.5q0 18 -12.5 28.5
t-52.5 10.5l-41 39l33 55h86l-27 -41q50 -5 73 -31.5t23 -63.5q0 -36 -17.5 -59.5t-45.5 -35t-64 -11.5z" />
    <glyph glyph-name="Scaron" unicode="&#x160;" horiz-adv-x="681" 
d="M355 -16q-92 0 -158 31t-103 87t-42 132l153 7q6 -42 24.5 -71.5t50 -44.5t77.5 -15q38 0 64.5 9t40.5 27.5t14 45.5q0 25 -12 43.5t-46 34t-100 30.5q-91 21 -146.5 47t-80.5 65.5t-25 99.5q0 64 31.5 112t91.5 75t143 27q88 0 149 -31t95.5 -85t41.5 -124l-152 -8
q-3 37 -20 64.5t-46 42.5t-70 15q-52 0 -81.5 -23t-29.5 -60q0 -26 13.5 -43.5t45 -30.5t89.5 -25q99 -20 156.5 -50.5t81.5 -72.5t24 -96q0 -66 -33.5 -114.5t-95 -74.5t-145.5 -26zM165 918h105l78 -109h-30l78 109h105l-96 -153h-144z" />
    <glyph glyph-name="scaron" unicode="&#x161;" horiz-adv-x="571" 
d="M295 -12q-83 0 -139 23.5t-85.5 64t-33.5 93.5l152 5q7 -38 32 -59t74 -21q40 0 62.5 13t22.5 40q0 17 -8 28.5t-31.5 20t-69.5 15.5q-85 15 -133 35t-68 52t-20 78q0 77 59.5 124.5t178.5 47.5q76 0 127.5 -24t80 -65.5t35.5 -94.5l-151 -6q-3 26 -15.5 44.5t-31.5 29
t-46 10.5q-40 0 -61.5 -16.5t-21.5 -43.5q0 -20 9.5 -32.5t31.5 -20.5t59 -13q86 -12 136.5 -33.5t72.5 -53.5t22 -79q0 -52 -30 -88t-83.5 -55t-126.5 -19zM119 744h105l78 -109h-30l78 109h105l-96 -153h-144z" />
    <glyph glyph-name="uni0162" unicode="&#x162;" horiz-adv-x="599" 
d="M223 0v582h-212v128h578v-128h-213v-582h-153zM293 -232q-50 0 -82.5 23t-45.5 60l66 28q8 -19 22 -28.5t37 -9.5q22 0 35 9.5t13 26.5q0 18 -12.5 28.5t-52.5 10.5l-41 39l33 55h86l-27 -41q50 -5 73 -31.5t23 -63.5q0 -36 -17.5 -59.5t-45.5 -35t-64 -11.5z" />
    <glyph glyph-name="uni0163" unicode="&#x163;" horiz-adv-x="445" 
d="M288 0q-83 0 -122 38.5t-39 122.5v501h150v-483q0 -39 16.5 -53t49.5 -14h75v-112h-130zM41 424v112h377v-112h-377zM256 -232q-50 0 -82.5 23t-45.5 60l66 28q8 -19 22 -28.5t37 -9.5q22 0 35 9.5t13 26.5q0 18 -12.5 28.5t-52.5 10.5l-41 39l33 55h86l-27 -41
q50 -5 73 -31.5t23 -63.5q0 -36 -17.5 -59.5t-45.5 -35t-64 -11.5z" />
    <glyph glyph-name="Tcaron" unicode="&#x164;" horiz-adv-x="599" 
d="M223 0v582h-212v128h578v-128h-213v-582h-153zM131 918h105l78 -109h-30l78 109h105l-96 -153h-144z" />
    <glyph glyph-name="tcaron" unicode="&#x165;" horiz-adv-x="450" 
d="M323 558l29 236h120l-54 -236h-95zM288 0q-83 0 -122 38.5t-39 122.5v501h150v-483q0 -39 16.5 -53t49.5 -14h75v-112h-130zM41 424v112h377v-112h-377z" />
    <glyph glyph-name="Tbar" unicode="&#x166;" horiz-adv-x="599" 
d="M223 0v582h-212v128h578v-128h-213v-582h-153zM99 269v115h402v-115h-402z" />
    <glyph glyph-name="tbar" unicode="&#x167;" horiz-adv-x="445" 
d="M288 0q-83 0 -122 38.5t-39 122.5v501h150v-483q0 -39 16.5 -53t49.5 -14h75v-112h-130zM41 424v112h377v-112h-377zM45 239v87h358v-87h-358z" />
    <glyph glyph-name="Utilde" unicode="&#x168;" horiz-adv-x="703" 
d="M352 -16q-90 0 -155.5 33t-101.5 94.5t-36 144.5v455h152v-455q0 -69 36.5 -106.5t104.5 -37.5t104 37.5t36 106.5v455h152v-455q0 -83 -35.5 -144.5t-101.5 -94.5t-155 -33zM408 774q-23 0 -40 7t-36 23q-11 9 -19.5 13.5t-19.5 4.5q-15 0 -25.5 -11t-12.5 -42h-75
q1 65 30 103.5t80 38.5q24 0 43 -7t39 -23q12 -9 20.5 -13.5t17.5 -4.5q16 0 26 11.5t12 43.5h74q-1 -66 -30.5 -105t-83.5 -39z" />
    <glyph glyph-name="utilde" unicode="&#x169;" horiz-adv-x="607" 
d="M242 -12q-83 0 -129.5 53.5t-46.5 149.5v345h150v-310q0 -62 19 -90.5t60 -28.5q46 0 71.5 31.5t25.5 94.5v303h150v-536h-137l-4 154l19 -4q-12 -80 -57 -121t-121 -41zM352 600q-23 0 -40 7t-36 23q-11 9 -19.5 13.5t-19.5 4.5q-15 0 -25.5 -11t-12.5 -42h-75
q1 65 30 103.5t80 38.5q24 0 43 -7t39 -23q12 -9 20.5 -13.5t17.5 -4.5q16 0 26 11.5t12 43.5h74q-1 -66 -30.5 -105t-83.5 -39z" />
    <glyph glyph-name="Umacron" unicode="&#x16a;" horiz-adv-x="703" 
d="M352 -16q-90 0 -155.5 33t-101.5 94.5t-36 144.5v455h152v-455q0 -69 36.5 -106.5t104.5 -37.5t104 37.5t36 106.5v455h152v-455q0 -83 -35.5 -144.5t-101.5 -94.5t-155 -33zM202 781v110h299v-110h-299z" />
    <glyph glyph-name="umacron" unicode="&#x16b;" horiz-adv-x="607" 
d="M242 -12q-83 0 -129.5 53.5t-46.5 149.5v345h150v-310q0 -62 19 -90.5t60 -28.5q46 0 71.5 31.5t25.5 94.5v303h150v-536h-137l-4 154l19 -4q-12 -80 -57 -121t-121 -41zM152 607v110h299v-110h-299z" />
    <glyph glyph-name="Ubreve" unicode="&#x16c;" horiz-adv-x="703" 
d="M352 -16q-90 0 -155.5 33t-101.5 94.5t-36 144.5v455h152v-455q0 -69 36.5 -106.5t104.5 -37.5t104 37.5t36 106.5v455h152v-455q0 -83 -35.5 -144.5t-101.5 -94.5t-155 -33zM352 766q-70 0 -112 38.5t-45 108.5h87q3 -34 21.5 -49.5t48.5 -15.5t48 15.5t21 49.5h87
q-3 -70 -45 -108.5t-111 -38.5z" />
    <glyph glyph-name="ubreve" unicode="&#x16d;" horiz-adv-x="607" 
d="M242 -12q-83 0 -129.5 53.5t-46.5 149.5v345h150v-310q0 -62 19 -90.5t60 -28.5q46 0 71.5 31.5t25.5 94.5v303h150v-536h-137l-4 154l19 -4q-12 -80 -57 -121t-121 -41zM302 592q-70 0 -112 38.5t-45 108.5h87q3 -34 21.5 -49.5t48.5 -15.5t48 15.5t21 49.5h87
q-3 -70 -45 -108.5t-111 -38.5z" />
    <glyph glyph-name="Uring" unicode="&#x16e;" horiz-adv-x="703" 
d="M352 -16q-90 0 -155.5 33t-101.5 94.5t-36 144.5v455h152v-455q0 -69 36.5 -106.5t104.5 -37.5t104 37.5t36 106.5v455h152v-455q0 -83 -35.5 -144.5t-101.5 -94.5t-155 -33zM352 749q-44 0 -73.5 29t-29.5 72q0 44 29.5 73t73.5 29q43 0 72.5 -29t29.5 -72
q0 -44 -29.5 -73t-72.5 -29zM352 813q16 0 26.5 10.5t10.5 26.5t-10.5 27t-26.5 11t-27 -11t-11 -27t11 -26.5t27 -10.5z" />
    <glyph glyph-name="uring" unicode="&#x16f;" horiz-adv-x="607" 
d="M242 -12q-83 0 -129.5 53.5t-46.5 149.5v345h150v-310q0 -62 19 -90.5t60 -28.5q46 0 71.5 31.5t25.5 94.5v303h150v-536h-137l-4 154l19 -4q-12 -80 -57 -121t-121 -41zM302 575q-44 0 -73.5 29t-29.5 72q0 44 29.5 73t73.5 29q43 0 72.5 -29t29.5 -72q0 -44 -29.5 -73
t-72.5 -29zM302 639q16 0 26.5 10.5t10.5 26.5t-10.5 27t-26.5 11t-27 -11t-11 -27t11 -26.5t27 -10.5z" />
    <glyph glyph-name="Uhungarumlaut" unicode="&#x170;" horiz-adv-x="703" 
d="M352 -16q-90 0 -155.5 33t-101.5 94.5t-36 144.5v455h152v-455q0 -69 36.5 -106.5t104.5 -37.5t104 37.5t36 106.5v455h152v-455q0 -83 -35.5 -144.5t-101.5 -94.5t-155 -33zM206 765l59 148h145l-90 -148h-114zM383 765l59 148h145l-90 -148h-114z" />
    <glyph glyph-name="uhungarumlaut" unicode="&#x171;" horiz-adv-x="607" 
d="M242 -12q-83 0 -129.5 53.5t-46.5 149.5v345h150v-310q0 -62 19 -90.5t60 -28.5q46 0 71.5 31.5t25.5 94.5v303h150v-536h-137l-4 154l19 -4q-12 -80 -57 -121t-121 -41zM156 591l59 148h145l-90 -148h-114zM333 591l59 148h145l-90 -148h-114z" />
    <glyph glyph-name="Uogonek" unicode="&#x172;" horiz-adv-x="703" 
d="M352 -16q-90 0 -155.5 33t-101.5 94.5t-36 144.5v455h152v-455q0 -69 36.5 -106.5t104.5 -37.5t104 37.5t36 106.5v455h152v-455q0 -83 -35.5 -144.5t-101.5 -94.5t-155 -33zM397 -216q-54 0 -83.5 22t-29.5 63q0 31 15.5 59.5t34.5 52.5l33 44l100 -24l-30 -40
q-15 -20 -23.5 -35t-8.5 -28q0 -12 7.5 -18.5t18.5 -6.5q13 0 25 4t20 9l28 -76q-14 -11 -44.5 -18.5t-62.5 -7.5z" />
    <glyph glyph-name="uogonek" unicode="&#x173;" horiz-adv-x="607" 
d="M242 -12q-83 0 -129.5 53.5t-46.5 149.5v345h150v-310q0 -62 19 -90.5t60 -28.5q46 0 71.5 31.5t25.5 94.5v303h150v-536h-137l-4 154l19 -4q-12 -80 -57 -121t-121 -41zM472 -217q-54 0 -83.5 22t-29.5 63q0 31 15.5 59.5t34.5 52.5l33 44l100 -24l-30 -40
q-15 -20 -23.5 -35t-8.5 -28q0 -12 7.5 -18.5t18.5 -6.5q13 0 25 4t20 9l28 -76q-14 -11 -44.5 -18.5t-62.5 -7.5z" />
    <glyph glyph-name="Wcircumflex" unicode="&#x174;" horiz-adv-x="1015" 
d="M229 0l-192 710h159l122 -500l123 500h133l124 -500l121 500h159l-191 -710h-164l-116 454l-116 -454h-162zM339 765l96 153h144l96 -153h-105l-78 110h30l-78 -110h-105z" />
    <glyph glyph-name="wcircumflex" unicode="&#x175;" horiz-adv-x="849" 
d="M180 0l-159 536h151l92 -363l99 363h122l99 -363l93 363h151l-159 -536h-146l-99 335l-99 -335h-145zM257 591l96 153h144l96 -153h-105l-78 110h30l-78 -110h-105z" />
    <glyph glyph-name="Ycircumflex" unicode="&#x176;" horiz-adv-x="631" 
d="M240 0v276l-247 434h168l155 -286l154 286h168l-246 -434v-276h-152zM148 765l96 153h144l96 -153h-105l-78 110h30l-78 -110h-105z" />
    <glyph glyph-name="ycircumflex" unicode="&#x177;" horiz-adv-x="586" 
d="M110 -150v112h71q26 0 38.5 7.5t19.5 26.5l11 31h-41l-188 509h153l123 -369l115 369h153l-206 -587q-18 -53 -52 -76t-95 -23h-102zM126 591l96 153h144l96 -153h-105l-78 110h30l-78 -110h-105z" />
    <glyph glyph-name="Ydieresis" unicode="&#x178;" horiz-adv-x="631" 
d="M240 0v276l-247 434h168l155 -286l154 286h168l-246 -434v-276h-152zM137 773v121h143v-121h-143zM352 773v121h143v-121h-143z" />
    <glyph glyph-name="Zacute" unicode="&#x179;" horiz-adv-x="594" 
d="M27 0v124l338 458h-322v128h511v-124l-345 -458h358v-128h-540zM238 765l59 148h145l-90 -148h-114z" />
    <glyph glyph-name="zacute" unicode="&#x17a;" horiz-adv-x="595" 
d="M56 0v118l295 306h-283v112h463v-118l-300 -306h308v-112h-483zM233 591l59 148h145l-90 -148h-114z" />
    <glyph glyph-name="Zdotaccent" unicode="&#x17b;" horiz-adv-x="594" 
d="M27 0v124l338 458h-322v128h511v-124l-345 -458h358v-128h-540zM228 776v120h155v-120h-155z" />
    <glyph glyph-name="zdotaccent" unicode="&#x17c;" horiz-adv-x="595" 
d="M56 0v118l295 306h-283v112h463v-118l-300 -306h308v-112h-483zM223 602v120h155v-120h-155z" />
    <glyph glyph-name="Zcaron" unicode="&#x17d;" horiz-adv-x="594" 
d="M27 0v124l338 458h-322v128h511v-124l-345 -458h358v-128h-540zM138 918h105l78 -109h-30l78 109h105l-96 -153h-144z" />
    <glyph glyph-name="zcaron" unicode="&#x17e;" horiz-adv-x="595" 
d="M56 0v118l295 306h-283v112h463v-118l-300 -306h308v-112h-483zM133 744h105l78 -109h-30l78 109h105l-96 -153h-144z" />
    <glyph glyph-name="uni018F" unicode="&#x18f;" horiz-adv-x="757" 
d="M568 285h-363q9 -60 32 -98t57 -56.5t80 -18.5q57 0 98 25.5t64 75.5t23 123v25q0 75 -24 128t-66 81t-98 28q-31 0 -60 -12t-51.5 -35.5t-37.5 -58.5l-160 9q22 69 65.5 119.5t105.5 78t139 27.5q101 0 178.5 -43.5t121 -126.5t43.5 -201q0 -92 -27 -161t-74 -115.5
t-109 -70.5t-133 -24q-65 0 -124.5 23t-106 69t-73 114t-26.5 158v56h532z" />
    <glyph glyph-name="florin" unicode="&#x192;" horiz-adv-x="528" 
d="M46 0v121h61q25 0 39.5 14.5t17.5 40.5l43 392q8 65 51.5 104t111.5 38l126 -1v-121h-87q-27 0 -42.5 -14t-18.5 -41l-44 -392q-7 -67 -50.5 -105t-112.5 -37zM103 396v112h393v-112h-393z" />
    <glyph glyph-name="uni01CD" unicode="&#x1cd;" horiz-adv-x="730" 
d="M19 0l256 710h180l256 -710h-158l-52 151h-273l-52 -151h-157zM271 276h188l-94 274zM197 918h105l78 -109h-30l78 109h105l-96 -153h-144z" />
    <glyph glyph-name="uni01CE" unicode="&#x1ce;" horiz-adv-x="594" 
d="M225 -12q-83 0 -135.5 38.5t-52.5 107.5q0 71 44.5 109.5t131.5 56.5l173 34q0 52 -23.5 78.5t-67.5 26.5q-43 0 -67 -19.5t-31 -57.5l-151 7q15 88 79.5 133.5t169.5 45.5q120 0 180.5 -57t60.5 -167v-183q0 -23 7.5 -30.5t22.5 -7.5h15v-103q-7 -2 -22.5 -4t-30.5 -2
q-32 0 -59.5 11t-44.5 37.5t-17 75.5l13 -10q-10 -36 -35.5 -63t-66 -42t-93.5 -15zM261 91q37 0 65 14.5t44 42.5t16 66v26l-122 -26q-36 -7 -54.5 -23.5t-18.5 -42.5q0 -27 18 -42t52 -15zM129 744h105l78 -109h-30l78 109h105l-96 -153h-144z" />
    <glyph glyph-name="uni01E4" unicode="&#x1e4;" horiz-adv-x="779" 
d="M380 169v72h362v-72h-362zM381 -16q-112 0 -187.5 48.5t-113.5 132.5t-38 189q0 106 40 190t116.5 133t186.5 49q129 0 206 -66.5t98 -182.5l-157 -7q-7 39 -24.5 68t-48 44.5t-77.5 15.5q-63 0 -104 -32t-60 -87t-19 -125q0 -71 19.5 -125.5t59.5 -85.5t100 -31
q54 0 90 19.5t54.5 58t19.5 95.5h-162v84h311v-42q0 -114 -37.5 -190t-107.5 -114.5t-165 -38.5z" />
    <glyph glyph-name="uni01E5" unicode="&#x1e5;" horiz-adv-x="658" 
d="M279 238v88h354v-88h-354zM306 -162q-77 0 -128.5 19t-82 53t-42.5 78l154 11q8 -26 30.5 -41t68.5 -15q54 0 82.5 25.5t28.5 81.5v57q-19 -37 -61 -59.5t-94 -22.5q-66 0 -117 32.5t-79.5 91t-28.5 137.5q0 77 28.5 136t79 92.5t115.5 33.5q59 0 99.5 -26t61.5 -69v83
h147v-483q0 -72 -33 -119.5t-92 -71.5t-137 -24zM305 136q52 0 82.5 40t30.5 111q0 47 -13.5 81t-39 52t-60.5 18q-54 0 -84 -41t-30 -110q0 -70 31 -110.5t83 -40.5z" />
    <glyph glyph-name="Gcaron" unicode="&#x1e6;" horiz-adv-x="738" 
d="M370 -16q-103 0 -176 47t-112.5 130.5t-39.5 192.5q0 107 40 191t115.5 132.5t181.5 48.5q92 0 155.5 -30.5t101.5 -86.5t53 -132l-157 -7q-11 59 -46.5 93.5t-105.5 34.5q-61 0 -101.5 -32t-60 -87t-19.5 -125q0 -71 19.5 -125.5t60 -85.5t104.5 -31q47 0 81.5 19t54 52
t23.5 75h-162v111h311v-369h-94l-8 152l18 -8q-10 -47 -44 -83t-83.5 -56.5t-109.5 -20.5zM212 918h105l78 -109h-30l78 109h105l-96 -153h-144z" />
    <glyph glyph-name="gcaron" unicode="&#x1e7;" 
d="M306 -162q-77 0 -128.5 19t-82 53t-42.5 78l154 11q8 -26 30.5 -41t68.5 -15q54 0 82.5 25.5t28.5 81.5v57q-19 -37 -61 -59.5t-94 -22.5q-66 0 -117 32.5t-79.5 91t-28.5 137.5q0 77 28.5 136t79 92.5t115.5 33.5q59 0 99.5 -26t61.5 -69v83h147v-483q0 -72 -33 -119.5
t-92 -71.5t-137 -24zM305 136q52 0 82.5 40t30.5 111q0 47 -13.5 81t-39 52t-60.5 18q-54 0 -84 -41t-30 -110q0 -70 31 -110.5t83 -40.5zM141 744h105l78 -109h-30l78 109h105l-96 -153h-144z" />
    <glyph glyph-name="uni01E8" unicode="&#x1e8;" horiz-adv-x="689" 
d="M74 0v710h152v-310l258 310h177l-261 -313l277 -397h-173l-204 295l-74 -86v-209h-152zM178 918h105l78 -109h-30l78 109h105l-96 -153h-144z" />
    <glyph glyph-name="uni01E9" unicode="&#x1e9;" horiz-adv-x="647" 
d="M66 0v710h150v-394l199 220h180l-208 -221l214 -315h-164l-147 230l-74 -79v-151h-150zM-27 896h105l78 -109h-30l78 109h105l-96 -153h-144z" />
    <glyph glyph-name="uni0218" unicode="&#x218;" horiz-adv-x="681" 
d="M355 -16q-92 0 -158 31t-103 87t-42 132l153 7q6 -42 24.5 -71.5t50 -44.5t77.5 -15q38 0 64.5 9t40.5 27.5t14 45.5q0 25 -12 43.5t-46 34t-100 30.5q-91 21 -146.5 47t-80.5 65.5t-25 99.5q0 64 31.5 112t91.5 75t143 27q88 0 149 -31t95.5 -85t41.5 -124l-152 -8
q-3 37 -20 64.5t-46 42.5t-70 15q-52 0 -81.5 -23t-29.5 -60q0 -26 13.5 -43.5t45 -30.5t89.5 -25q99 -20 156.5 -50.5t81.5 -72.5t24 -96q0 -66 -33.5 -114.5t-95 -74.5t-145.5 -26zM267 -253l52 88h-35v116h130v-105l-59 -99h-88z" />
    <glyph glyph-name="uni0219" unicode="&#x219;" horiz-adv-x="571" 
d="M295 -12q-83 0 -139 23.5t-85.5 64t-33.5 93.5l152 5q7 -38 32 -59t74 -21q40 0 62.5 13t22.5 40q0 17 -8 28.5t-31.5 20t-69.5 15.5q-85 15 -133 35t-68 52t-20 78q0 77 59.5 124.5t178.5 47.5q76 0 127.5 -24t80 -65.5t35.5 -94.5l-151 -6q-3 26 -15.5 44.5t-31.5 29
t-46 10.5q-40 0 -61.5 -16.5t-21.5 -43.5q0 -20 9.5 -32.5t31.5 -20.5t59 -13q86 -12 136.5 -33.5t72.5 -53.5t22 -79q0 -52 -30 -88t-83.5 -55t-126.5 -19zM210 -253l52 88h-35v116h130v-105l-59 -99h-88z" />
    <glyph glyph-name="uni021A" unicode="&#x21a;" horiz-adv-x="599" 
d="M223 0v582h-212v128h578v-128h-213v-582h-153zM217 -253l52 88h-35v116h130v-105l-59 -99h-88z" />
    <glyph glyph-name="uni021B" unicode="&#x21b;" horiz-adv-x="445" 
d="M288 0q-83 0 -122 38.5t-39 122.5v501h150v-483q0 -39 16.5 -53t49.5 -14h75v-112h-130zM41 424v112h377v-112h-377zM180 -253l52 88h-35v116h130v-105l-59 -99h-88z" />
    <glyph glyph-name="uni0237" unicode="&#x237;" horiz-adv-x="331" 
d="M-3 -150v112h59q30 0 44.5 12t14.5 48v514h151v-518q0 -90 -40.5 -129t-138.5 -39h-90z" />
    <glyph glyph-name="uni0259" unicode="&#x259;" horiz-adv-x="605" 
d="M298 548q82 0 143 -35t94.5 -97.5t33.5 -147.5q0 -84 -33.5 -147t-94 -98t-141.5 -35q-80 0 -139 35t-91.5 100t-32.5 155v30h376q-2 64 -33.5 95t-83.5 31q-38 0 -64 -16t-37 -49l-151 9q22 80 89.5 125t164.5 45zM413 216h-223q4 -58 33.5 -87.5t76.5 -29.5t77.5 31
t35.5 86z" />
    <glyph glyph-name="uni02B9" unicode="&#x2b9;" horiz-adv-x="260" 
d="M40 475l39 235h136l-52 -235h-123z" />
    <glyph glyph-name="uni02BC" unicode="&#x2bc;" horiz-adv-x="242" 
d="M57 438l29 272h115l-55 -272h-89z" />
    <glyph glyph-name="circumflex" unicode="&#x2c6;" horiz-adv-x="410" 
d="M37 591l96 153h144l96 -153h-105l-78 110h30l-78 -110h-105z" />
    <glyph glyph-name="caron" unicode="&#x2c7;" horiz-adv-x="410" 
d="M37 744h105l78 -109h-30l78 109h105l-96 -153h-144z" />
    <glyph glyph-name="uni02C8" unicode="&#x2c8;" horiz-adv-x="194" 
d="M53 438l-14 188v84h116v-84l-13 -188h-89z" />
    <glyph glyph-name="breve" unicode="&#x2d8;" horiz-adv-x="387" 
d="M194 592q-70 0 -112 38.5t-45 108.5h87q3 -34 21.5 -49.5t48.5 -15.5t48 15.5t21 49.5h87q-3 -70 -45 -108.5t-111 -38.5z" />
    <glyph glyph-name="dotaccent" unicode="&#x2d9;" horiz-adv-x="229" 
d="M37 602v120h155v-120h-155z" />
    <glyph glyph-name="ring" unicode="&#x2da;" horiz-adv-x="279" 
d="M140 575q-44 0 -73.5 29t-29.5 72q0 44 29.5 73t73.5 29q43 0 72.5 -29t29.5 -72q0 -44 -29.5 -73t-72.5 -29zM140 639q16 0 26.5 10.5t10.5 26.5t-10.5 27t-26.5 11t-27 -11t-11 -27t11 -26.5t27 -10.5z" />
    <glyph glyph-name="ogonek" unicode="&#x2db;" horiz-adv-x="293" 
d="M150 -217q-54 0 -83.5 22t-29.5 63q0 31 15.5 59.5t34.5 52.5l33 44l100 -24l-30 -40q-15 -20 -23.5 -35t-8.5 -28q0 -12 7.5 -18.5t18.5 -6.5q13 0 25 4t20 9l28 -76q-14 -11 -44.5 -18.5t-62.5 -7.5z" />
    <glyph glyph-name="tilde" unicode="&#x2dc;" horiz-adv-x="416" 
d="M265 600q-23 0 -40 7t-36 23q-11 9 -19.5 13.5t-19.5 4.5q-15 0 -25.5 -11t-12.5 -42h-75q1 65 30 103.5t80 38.5q24 0 43 -7t39 -23q12 -9 20.5 -13.5t17.5 -4.5q16 0 26 11.5t12 43.5h74q-1 -66 -30.5 -105t-83.5 -39z" />
    <glyph glyph-name="hungarumlaut" unicode="&#x2dd;" horiz-adv-x="455" 
d="M37 591l59 148h145l-90 -148h-114zM214 591l59 148h145l-90 -148h-114z" />
    <glyph glyph-name="gravecomb" unicode="&#x300;" horiz-adv-x="0" 
d="M127 598l-90 147h145l59 -147h-114z" />
    <glyph glyph-name="acutecomb" unicode="&#x301;" horiz-adv-x="0" 
d="M37 591l59 148h145l-90 -148h-114z" />
    <glyph glyph-name="uni0302" unicode="&#x302;" horiz-adv-x="0" 
d="M37 591l96 153h144l96 -153h-105l-78 110h30l-78 -110h-105z" />
    <glyph glyph-name="tildecomb" unicode="&#x303;" horiz-adv-x="0" 
d="M265 600q-23 0 -40 7t-36 23q-11 9 -19.5 13.5t-19.5 4.5q-15 0 -25.5 -11t-12.5 -42h-75q1 65 30 103.5t80 38.5q24 0 43 -7t39 -23q12 -9 20.5 -13.5t17.5 -4.5q16 0 26 11.5t12 43.5h74q-1 -66 -30.5 -105t-83.5 -39z" />
    <glyph glyph-name="uni0304" unicode="&#x304;" horiz-adv-x="0" 
d="M37 607v110h299v-110h-299z" />
    <glyph glyph-name="uni0306" unicode="&#x306;" horiz-adv-x="0" 
d="M194 592q-70 0 -112 38.5t-45 108.5h87q3 -34 21.5 -49.5t48.5 -15.5t48 15.5t21 49.5h87q-3 -70 -45 -108.5t-111 -38.5z" />
    <glyph glyph-name="uni0307" unicode="&#x307;" horiz-adv-x="0" 
d="M37 602v120h155v-120h-155z" />
    <glyph glyph-name="uni0308" unicode="&#x308;" horiz-adv-x="0" 
d="M37 599v121h143v-121h-143zM252 599v121h143v-121h-143z" />
    <glyph glyph-name="uni030A" unicode="&#x30a;" horiz-adv-x="0" 
d="M140 575q-44 0 -73.5 29t-29.5 72q0 44 29.5 73t73.5 29q43 0 72.5 -29t29.5 -72q0 -44 -29.5 -73t-72.5 -29zM140 639q16 0 26.5 10.5t10.5 26.5t-10.5 27t-26.5 11t-27 -11t-11 -27t11 -26.5t27 -10.5z" />
    <glyph glyph-name="uni030B" unicode="&#x30b;" horiz-adv-x="0" 
d="M37 591l59 148h145l-90 -148h-114zM214 591l59 148h145l-90 -148h-114z" />
    <glyph glyph-name="uni030C" unicode="&#x30c;" horiz-adv-x="0" 
d="M37 744h105l78 -109h-30l78 109h105l-96 -153h-144z" />
    <glyph glyph-name="uni0312" unicode="&#x312;" horiz-adv-x="0" 
d="M37 592v104l59 100h88l-52 -88h35v-116h-130z" />
    <glyph glyph-name="uni0326" unicode="&#x326;" horiz-adv-x="0" 
d="M37 -253l52 88h-35v116h130v-105l-59 -99h-88z" />
    <glyph glyph-name="uni0327" unicode="&#x327;" horiz-adv-x="0" 
d="M165 -232q-50 0 -82.5 23t-45.5 60l66 28q8 -19 22 -28.5t37 -9.5q22 0 35 9.5t13 26.5q0 18 -12.5 28.5t-52.5 10.5l-41 39l33 55h86l-27 -41q50 -5 73 -31.5t23 -63.5q0 -36 -17.5 -59.5t-45.5 -35t-64 -11.5z" />
    <glyph glyph-name="uni0328" unicode="&#x328;" horiz-adv-x="0" 
d="M150 -217q-54 0 -83.5 22t-29.5 63q0 31 15.5 59.5t34.5 52.5l33 44l100 -24l-30 -40q-15 -20 -23.5 -35t-8.5 -28q0 -12 7.5 -18.5t18.5 -6.5q13 0 25 4t20 9l28 -76q-14 -11 -44.5 -18.5t-62.5 -7.5z" />
    <glyph glyph-name="uni0335" unicode="&#x335;" horiz-adv-x="0" 
d="M101 281v87h348v-87h-348z" />
    <glyph glyph-name="uni0336" unicode="&#x336;" horiz-adv-x="0" 
d="M20 494v111h716v-111h-716z" />
    <glyph glyph-name="uni0337" unicode="&#x337;" horiz-adv-x="0" 
d="M40 285v98l304 120v-98z" />
    <glyph glyph-name="uni0338" unicode="&#x338;" horiz-adv-x="0" 
d="M40 -16l399 564h95l-399 -564h-95z" />
    <glyph glyph-name="Lambda" unicode="&#x39b;" horiz-adv-x="721" 
d="M19 0l256 710h171l256 -710h-153l-189 550l-188 -550h-153z" />
    <glyph glyph-name="uni03A9" unicode="&#x3a9;" horiz-adv-x="768" 
d="M43 0v128l147 -3q-43 22 -77 60.5t-52.5 90.5t-18.5 117q0 71 24 132t68.5 106t107.5 70t142 25q105 0 181.5 -44t118.5 -119t42 -170q0 -65 -19 -117t-52 -90.5t-77 -60.5l147 3v-128h-300v128q42 3 74.5 34.5t52 84.5t19.5 117q0 72 -22.5 124.5t-64 81t-100.5 28.5
q-58 0 -100 -28.5t-64.5 -81t-22.5 -124.5q0 -64 19.5 -117t52.5 -84.5t74 -34.5v-128h-300z" />
    <glyph glyph-name="lambda" unicode="&#x3bb;" horiz-adv-x="639" 
d="M543 -1q-32 0 -56 8.5t-42.5 26.5t-34 45t-30.5 63l-158 391q-14 34 -27 50t-44 16h-51v111h95q43 0 73 -16t52 -47t41 -79l158 -392q9 -22 17 -36.5t19 -21.5t30 -7h35v-111zM19 0l224 513l131 -45l-201 -468h-154z" />
    <glyph glyph-name="pi" unicode="&#x3c0;" horiz-adv-x="669" 
d="M599 0q-93 0 -136.5 45.5t-43.5 131.5v318h125v-318q0 -30 16 -47.5t45 -17.5h36v-112h-42zM143 0v493h125v-493h-125zM41 424v112h602v-112h-602z" />
    <glyph glyph-name="uni0400" unicode="&#x400;" horiz-adv-x="622" 
d="M74 0v710h494v-128h-342v-163h330v-126h-330v-165h350v-128h-502zM281 772l-90 147h145l59 -147h-114z" />
    <glyph glyph-name="uni0401" unicode="&#x401;" horiz-adv-x="622" 
d="M74 0v710h494v-128h-342v-163h330v-126h-330v-165h350v-128h-502zM143 773v121h143v-121h-143zM358 773v121h143v-121h-143z" />
    <glyph glyph-name="uni0402" unicode="&#x402;" horiz-adv-x="789" 
d="M187 0v710h152v-374l-28 -38q2 50 28.5 89.5t73.5 62t105 22.5q70 0 121.5 -28.5t80.5 -80t29 -120.5q0 -75 -36 -129.5t-101.5 -84t-155.5 -29.5v128q66 0 102.5 30t36.5 81q0 49 -31 78.5t-84 29.5q-43 0 -75 -16.5t-49 -47t-17 -71.5v-212h-152zM11 582v128h530v-128
h-530z" />
    <glyph glyph-name="uni0403" unicode="&#x403;" horiz-adv-x="610" 
d="M74 0v710h525v-128h-373v-582h-152zM268 765l59 148h145l-90 -148h-114z" />
    <glyph glyph-name="uni0404" unicode="&#x404;" horiz-adv-x="763" 
d="M384 -16q-108 0 -185.5 45t-119 128t-41.5 197q0 115 41.5 198.5t119 128.5t185.5 45q91 0 161 -32.5t114.5 -93t60.5 -146.5h-161q-12 46 -36 78t-59 49t-80 17q-60 0 -102.5 -29t-65 -83.5t-22.5 -131.5q0 -75 22.5 -130t65 -83.5t102.5 -28.5q67 0 112 37t63 105h161
q-17 -84 -61.5 -144.5t-114 -93t-160.5 -32.5zM427 296h-303v117h303v-117z" />
    <glyph glyph-name="uni0405" unicode="&#x405;" horiz-adv-x="681" 
d="M355 -16q-92 0 -158 31t-103 87t-42 132l153 7q6 -42 24.5 -71.5t50 -44.5t77.5 -15q38 0 64.5 9t40.5 27.5t14 45.5q0 25 -12 43.5t-46 34t-100 30.5q-91 21 -146.5 47t-80.5 65.5t-25 99.5q0 64 31.5 112t91.5 75t143 27q88 0 149 -31t95.5 -85t41.5 -124l-152 -8
q-3 37 -20 64.5t-46 42.5t-70 15q-52 0 -81.5 -23t-29.5 -60q0 -26 13.5 -43.5t45 -30.5t89.5 -25q99 -20 156.5 -50.5t81.5 -72.5t24 -96q0 -66 -33.5 -114.5t-95 -74.5t-145.5 -26z" />
    <glyph glyph-name="uni0406" unicode="&#x406;" horiz-adv-x="304" 
d="M78 0v710h152v-710h-152z" />
    <glyph glyph-name="uni0407" unicode="&#x407;" horiz-adv-x="300" 
d="M72 0v710h152v-710h-152zM-36 779v121h143v-121h-143zM179 779v121h143v-121h-143z" />
    <glyph glyph-name="uni0408" unicode="&#x408;" horiz-adv-x="627" 
d="M309 -16q-83 0 -140.5 35t-88 95.5t-31.5 138.5l153 7q1 -76 29 -112t78 -36q51 0 79 35t28 108v455h152v-455q0 -83 -32.5 -144t-90.5 -94t-136 -33z" />
    <glyph glyph-name="uni0409" unicode="&#x409;" horiz-adv-x="1133" 
d="M49 0v128h57q29 0 44.5 19.5t19.5 52.5l46 510h491v-710h-151v582h-202l-37 -409q-8 -79 -49.5 -126t-116.5 -47h-102zM525 710h152v-245h133q85 0 146 -28.5t93.5 -80.5t32.5 -124q0 -108 -72 -170t-200 -62h-285v710zM677 337v-209h124q60 0 92.5 26.5t32.5 77.5
q0 52 -33 78.5t-92 26.5h-124z" />
    <glyph glyph-name="uni040A" unicode="&#x40a;" horiz-adv-x="1099" 
d="M74 0v710h152v-710h-152zM186 337v128h349v-128h-349zM491 710h152v-245h133q85 0 146 -28.5t93.5 -80.5t32.5 -124q0 -108 -72 -170t-200 -62h-285v710zM643 337v-209h124q60 0 92.5 26.5t32.5 77.5q0 52 -33 78.5t-92 26.5h-124z" />
    <glyph glyph-name="uni040B" unicode="&#x40b;" horiz-adv-x="785" 
d="M11 582v128h530v-128h-530zM339 710v-374l-28 -38q2 51 29.5 90.5t75 61.5t105.5 22q108 0 168 -58.5t60 -158.5v-255h-152v218q0 63 -29 96t-86 33q-43 0 -75.5 -15.5t-50 -44.5t-17.5 -69v-218h-152v710h152z" />
    <glyph glyph-name="uni040C" unicode="&#x40c;" horiz-adv-x="687" 
d="M499 0l-280 355h173l283 -355h-176zM74 0v710h152v-710h-152zM219 355l272 355h174l-273 -355h-173zM287 765l59 148h145l-90 -148h-114z" />
    <glyph glyph-name="uni040D" unicode="&#x40d;" horiz-adv-x="748" 
d="M674 0h-152v473l-280 -473h-170v710h152v-490l283 490h167v-710zM319 772l-90 147h146l59 -147h-115z" />
    <glyph glyph-name="uni040E" unicode="&#x40e;" horiz-adv-x="612" 
d="M106 0v124h80q25 0 39.5 8t20.5 27l18 48h-54l-191 503h157l132 -373l129 373h156l-219 -611q-18 -51 -54 -75t-94 -24h-120zM306 766q-70 0 -112 38.5t-45 108.5h87q3 -34 21.5 -49.5t48.5 -15.5t48 15.5t21 49.5h87q-3 -70 -45 -108.5t-111 -38.5z" />
    <glyph glyph-name="uni040F" unicode="&#x40f;" horiz-adv-x="717" 
d="M283 -150v182h152v-182h-152zM74 710h152v-582h265v582h152v-710h-569v710z" />
    <glyph glyph-name="uni0410" unicode="&#x410;" horiz-adv-x="730" 
d="M19 0l256 710h180l256 -710h-158l-52 151h-273l-52 -151h-157zM271 276h188l-94 274z" />
    <glyph glyph-name="uni0411" unicode="&#x411;" horiz-adv-x="682" 
d="M74 0v710h152v-259h132q128 0 200.5 -60t72.5 -166q0 -104 -72.5 -164.5t-200.5 -60.5h-284zM226 128h123q62 0 94 24.5t32 72.5q0 49 -32 74t-94 25h-123v-196zM96 582v128h503v-128h-503z" />
    <glyph glyph-name="uni0412" unicode="&#x412;" horiz-adv-x="703" 
d="M74 0v710h276q132 0 202 -46.5t70 -146.5q0 -44 -18 -76.5t-52.5 -51.5t-83.5 -23v2q89 -6 136.5 -51.5t47.5 -120.5q0 -99 -69.5 -147.5t-198.5 -48.5h-310zM226 124h151q55 0 88.5 22.5t33.5 67.5t-33.5 68.5t-88.5 23.5h-151v-182zM226 416h120q56 0 89.5 22t33.5 63
q0 44 -32.5 64.5t-90.5 20.5h-120v-170z" />
    <glyph glyph-name="uni0413" unicode="&#x413;" horiz-adv-x="610" 
d="M74 0v710h525v-128h-373v-582h-152z" />
    <glyph glyph-name="uni0414" unicode="&#x414;" horiz-adv-x="856" 
d="M50 -150v278h31q40 0 63.5 33.5t31.5 98.5l52 450h490v-582h88v-278h-152v150h-451v-150h-153zM290 128h276v454h-198l-38 -332q-5 -40 -14.5 -70t-25.5 -52z" />
    <glyph glyph-name="uni0415" unicode="&#x415;" horiz-adv-x="622" 
d="M74 0v710h494v-128h-342v-163h330v-126h-330v-165h350v-128h-502z" />
    <glyph glyph-name="uni0416" unicode="&#x416;" horiz-adv-x="1028" 
d="M12 0l265 355l-255 355h190l255 -355l-265 -355h-190zM438 0v710h152v-710h-152zM826 0l-265 355l255 355h190l-256 -355l266 -355h-190z" />
    <glyph glyph-name="uni0417" unicode="&#x417;" horiz-adv-x="688" 
d="M344 -16q-86 0 -152 28t-104.5 78.5t-41.5 117.5l155 6q4 -46 43 -74t101 -28q66 0 103.5 29t37.5 78q0 36 -19 59t-49 34.5t-64 10.5l-72 -1v106l72 -1q28 0 52.5 9.5t40 30t15.5 53.5q0 37 -32.5 57.5t-88.5 20.5q-54 0 -87.5 -19.5t-37.5 -52.5l-154 7
q7 58 44.5 101.5t98.5 67.5t139 24q83 0 144.5 -23t96 -64.5t34.5 -97.5q0 -49 -25.5 -84t-74 -55.5t-117.5 -25.5l2 15q76 -5 129.5 -29.5t81.5 -67t28 -99.5q0 -63 -37.5 -110.5t-104.5 -74t-157 -26.5z" />
    <glyph glyph-name="uni0418" unicode="&#x418;" horiz-adv-x="748" 
d="M674 0h-152v473l-280 -473h-170v710h152v-490l283 490h167v-710z" />
    <glyph glyph-name="uni0419" unicode="&#x419;" horiz-adv-x="748" 
d="M674 0h-152v473l-280 -473h-170v710h152v-490l283 490h167v-710zM371 772q-69 0 -111.5 38.5t-45.5 108.5h87q4 -34 22 -49.5t48 -15.5t48 15.5t22 49.5h87q-3 -70 -45 -108.5t-112 -38.5z" />
    <glyph glyph-name="uni041A" unicode="&#x41a;" horiz-adv-x="687" 
d="M499 0l-280 355h173l283 -355h-176zM74 0v710h152v-710h-152zM219 355l272 355h174l-273 -355h-173z" />
    <glyph glyph-name="uni041B" unicode="&#x41b;" horiz-adv-x="781" 
d="M49 0v128h57q29 0 44.5 19.5t19.5 52.5l46 510h491v-710h-151v582h-202l-37 -409q-8 -79 -49.5 -126t-116.5 -47h-102z" />
    <glyph glyph-name="uni041C" unicode="&#x41c;" horiz-adv-x="915" 
d="M74 0v710h203l181 -517l180 517h203v-710h-152v460l-167 -458h-130l-166 458v-460h-152z" />
    <glyph glyph-name="uni041D" unicode="&#x41d;" horiz-adv-x="721" 
d="M74 0v710h152v-337l-67 48h404l-68 -48v337h152v-710h-152v341l68 -48h-404l67 48v-341h-152z" />
    <glyph glyph-name="uni041E" unicode="&#x41e;" horiz-adv-x="776" 
d="M388 -16q-108 0 -185.5 45t-119 128t-41.5 197t41.5 197.5t119 129t185.5 45.5t185.5 -45.5t119 -129t41.5 -197.5t-41.5 -197t-119 -128t-185.5 -45zM387 112q60 0 102.5 28.5t65 82.5t22.5 131t-22.5 131.5t-65 83.5t-102.5 29q-59 0 -101 -29t-64.5 -83.5
t-22.5 -131.5t22.5 -131t65 -82.5t100.5 -28.5z" />
    <glyph glyph-name="uni041F" unicode="&#x41f;" horiz-adv-x="717" 
d="M74 0v710h569v-710h-152v582h-265v-582h-152z" />
    <glyph glyph-name="uni0420" unicode="&#x420;" horiz-adv-x="672" 
d="M74 0v710h284q128 0 200.5 -62t72.5 -170q0 -71 -32.5 -123.5t-94 -81t-146.5 -28.5h-132v-245h-152zM226 373h123q60 0 93 26.5t33 78.5q0 51 -32.5 77.5t-93.5 26.5h-123v-209z" />
    <glyph glyph-name="uni0421" unicode="&#x421;" horiz-adv-x="729" 
d="M376 -16q-97 0 -172.5 44t-118 127t-42.5 199q0 113 41 196.5t117 129.5t178 46q139 0 216.5 -68.5t99.5 -195.5l-158 -6q-12 67 -52 104.5t-106 37.5q-57 0 -97 -30t-61 -85t-21 -129q0 -75 21.5 -129.5t61.5 -83.5t95 -29q72 0 111.5 40.5t49.5 112.5l159 -6
q-14 -87 -55 -148t-107.5 -94t-159.5 -33z" />
    <glyph glyph-name="uni0422" unicode="&#x422;" horiz-adv-x="621" 
d="M212 0v582h-212v128h578v-128h-213v-582h-153z" />
    <glyph glyph-name="uni0423" unicode="&#x423;" horiz-adv-x="612" 
d="M106 0v124h80q25 0 39.5 8t20.5 27l18 48h-54l-191 503h157l132 -373l129 373h156l-219 -611q-18 -51 -54 -75t-94 -24h-120z" />
    <glyph glyph-name="uni0424" unicode="&#x424;" horiz-adv-x="869" 
d="M433 73q-117 0 -205 35.5t-137 99t-49 147.5q0 85 49 148t137 98.5t205 35.5q118 0 206.5 -35.5t138 -98.5t49.5 -148q0 -84 -49.5 -147.5t-138 -99t-206.5 -35.5zM433 201q73 0 126 19t82 53.5t29 81.5t-29 81.5t-82 53.5t-126 19q-72 0 -124.5 -19t-81 -53.5
t-28.5 -81.5t28.5 -81.5t81 -53.5t124.5 -19zM363 0v710h143v-710h-143z" />
    <glyph glyph-name="uni0425" unicode="&#x425;" horiz-adv-x="688" 
d="M12 0l241 356l-239 354h176l155 -239l151 239h177l-239 -352l242 -358h-177l-156 243l-154 -243h-177z" />
    <glyph glyph-name="uni0426" unicode="&#x426;" horiz-adv-x="810" 
d="M604 -150v278h152v-278h-152zM454 0v128h171v-128h-171zM74 710h152v-582h265v582h152v-710h-569v710z" />
    <glyph glyph-name="uni0427" unicode="&#x427;" horiz-adv-x="672" 
d="M446 0v374l28 38q-2 -50 -30 -90t-74.5 -62t-106.5 -22q-107 0 -167 58.5t-60 158.5v255h152v-218q0 -62 29 -95.5t86 -33.5q44 0 76 15.5t49.5 44.5t17.5 69v218h152v-710h-152z" />
    <glyph glyph-name="uni0428" unicode="&#x428;" horiz-adv-x="968" 
d="M74 0v710h152v-710h-152zM74 0v128h820v-128h-820zM408 0v710h153v-710h-153zM742 0v710h152v-710h-152z" />
    <glyph glyph-name="uni0429" unicode="&#x429;" horiz-adv-x="1059" 
d="M853 -150v278h152v-278h-152zM770 0v128h170v-128h-170zM74 0v710h152v-710h-152zM74 0v128h820v-128h-820zM408 0v710h153v-710h-153zM742 0v710h152v-710h-152z" />
    <glyph glyph-name="uni042A" unicode="&#x42a;" horiz-adv-x="755" 
d="M54 582v128h209v-128h-209zM158 710h152v-245h132q85 0 146 -28.5t94 -80.5t33 -124q0 -108 -72.5 -170t-200.5 -62h-284v710zM310 337v-209h123q60 0 93 26.5t33 77.5q0 52 -33 78.5t-93 26.5h-123z" />
    <glyph glyph-name="uni042B" unicode="&#x42b;" horiz-adv-x="927" 
d="M702 0v710h151v-710h-151zM74 710h152v-245h132q85 0 146.5 -28.5t94 -80.5t32.5 -124q0 -108 -72.5 -170t-200.5 -62h-284v710zM226 337v-209h123q61 0 93.5 26.5t32.5 77.5q0 52 -33 78.5t-93 26.5h-123z" />
    <glyph glyph-name="uni042C" unicode="&#x42c;" horiz-adv-x="682" 
d="M74 710h152v-245h132q85 0 146.5 -28.5t94 -80.5t32.5 -124q0 -108 -72.5 -170t-200.5 -62h-284v710zM226 337v-209h123q61 0 93.5 26.5t32.5 77.5q0 52 -33 78.5t-93 26.5h-123z" />
    <glyph glyph-name="uni042D" unicode="&#x42d;" horiz-adv-x="766" 
d="M378 -16q-91 0 -160.5 32.5t-114 93t-61.5 144.5h161q18 -68 63 -105t112 -37q60 0 102.5 28.5t65 83.5t22.5 130q0 77 -22.5 131.5t-65 83.5t-102.5 29q-44 0 -79.5 -17t-59 -49t-36.5 -78h-161q17 86 61 146.5t114 93t161 32.5q109 0 186 -45t118.5 -128.5t41.5 -198.5
q0 -114 -41.5 -197t-118.5 -128t-186 -45zM335 296v117h303v-117h-303z" />
    <glyph glyph-name="uni042E" unicode="&#x42e;" horiz-adv-x="1054" 
d="M74 0v710h152v-710h-152zM201 291v128h189v-128h-189zM666 -16q-108 0 -185.5 45t-119 128t-41.5 197t41.5 197.5t119 129t185.5 45.5t185.5 -45.5t119 -129t41.5 -197.5t-41.5 -197t-119 -128t-185.5 -45zM666 112q59 0 101.5 28.5t65 82.5t22.5 131t-22.5 131.5
t-65 83.5t-101.5 29t-101.5 -29t-65 -83.5t-22.5 -131.5t22.5 -131t65 -82.5t101.5 -28.5z" />
    <glyph glyph-name="uni042F" unicode="&#x42f;" horiz-adv-x="709" 
d="M635 0h-152v261h-121h-5h-4l-138 -261h-164l158 288q-65 23 -98 76t-33 121q0 107 71 166t201 59h285v-710zM483 387v195h-124q-57 0 -91.5 -24.5t-34.5 -73.5q0 -48 34.5 -72.5t91.5 -24.5h124z" />
    <glyph glyph-name="uni0430" unicode="&#x430;" horiz-adv-x="594" 
d="M225 -12q-83 0 -135.5 38.5t-52.5 107.5q0 71 44.5 109.5t131.5 56.5l173 34q0 52 -23.5 78.5t-67.5 26.5q-43 0 -67 -19.5t-31 -57.5l-151 7q15 88 79.5 133.5t169.5 45.5q120 0 180.5 -57t60.5 -167v-183q0 -23 7.5 -30.5t22.5 -7.5h15v-103q-7 -2 -22.5 -4t-30.5 -2
q-32 0 -59.5 11t-44.5 37.5t-17 75.5l13 -10q-10 -36 -35.5 -63t-66 -42t-93.5 -15zM261 91q37 0 65 14.5t44 42.5t16 66v26l-122 -26q-36 -7 -54.5 -23.5t-18.5 -42.5q0 -27 18 -42t52 -15z" />
    <glyph glyph-name="uni0431" unicode="&#x431;" horiz-adv-x="639" 
d="M322 -16q-59 0 -113.5 21.5t-96.5 70.5q-34 39 -52 100.5t-18 140.5q0 96 19 162.5t59.5 110.5t104.5 72q33 15 50.5 29t24.5 32.5t7 44.5l127 1q0 -68 -26.5 -114t-90.5 -77q-37 -17 -65 -34.5t-46.5 -42t-27 -61.5t-5.5 -94l-30 2q12 45 39 76.5t66.5 48t86.5 16.5
q80 0 138.5 -31.5t91 -87.5t32.5 -132q0 -77 -34.5 -134.5t-96 -88.5t-144.5 -31zM323 99q36 0 63 17.5t42 49t15 72.5q0 40 -14.5 70.5t-40.5 47.5t-61 17q-36 0 -64.5 -16.5t-44.5 -46.5t-17 -72q-1 -41 14 -72.5t43 -49t65 -17.5z" />
    <glyph glyph-name="uni0432" unicode="&#x432;" horiz-adv-x="619" 
d="M66 0v536h244q113 0 172 -37.5t59 -111.5q0 -48 -33.5 -77.5t-94.5 -32.5v0q73 -3 111.5 -35.5t38.5 -89.5q0 -73 -57 -112.5t-167 -39.5h-273zM217 108h113q38 0 59 15t21 42q0 29 -21 45.5t-59 16.5h-113v-119zM217 317h90q38 0 59.5 15t21.5 41t-21.5 40.5t-59.5 14.5
h-90v-111z" />
    <glyph glyph-name="uni0433" unicode="&#x433;" horiz-adv-x="498" 
d="M66 0v536h405v-112h-337l82 71v-495h-150z" />
    <glyph glyph-name="uni0434" unicode="&#x434;" horiz-adv-x="741" 
d="M36 36v75h38q32 0 49.5 23.5t24.5 72.5l48 329h423v-536h-150v424h-153l-29 -222q-11 -84 -54 -125t-115 -41h-82zM36 -150v218h150v-218h-150zM44 0v111h603v-111h-603zM555 -150v261h150v-261h-150z" />
    <glyph glyph-name="uni0435" unicode="&#x435;" horiz-adv-x="605" 
d="M307 -12q-82 0 -142.5 34.5t-94 97.5t-33.5 148t33.5 147.5t93.5 97.5t142 35q80 0 139 -35t91.5 -100t32.5 -155v-30h-377q3 -64 34.5 -95t83.5 -31q38 0 63.5 16t36.5 49l151 -9q-21 -80 -89 -125t-165 -45zM192 320h223q-3 59 -32.5 88t-76.5 29t-77.5 -30.5
t-36.5 -86.5z" />
    <glyph glyph-name="uni0436" unicode="&#x436;" horiz-adv-x="991" 
d="M46 0l217 268h176l-208 -268h-185zM421 0v536h150v-536h-150zM761 0l-209 268h175l218 -268h-184zM552 268l199 268h184l-208 -268h-175zM263 268l-207 268h185l198 -268h-176z" />
    <glyph glyph-name="uni0437" unicode="&#x437;" horiz-adv-x="563" 
d="M269 -12q-74 0 -129.5 21.5t-86 61.5t-33.5 96l153 4q3 -32 27.5 -52t66.5 -20q41 0 65.5 17.5t24.5 46.5q0 35 -25 55.5t-67 20.5l-45 -1v90l45 -1q35 0 54.5 18.5t19.5 51.5q0 29 -20 45t-54 16q-32 0 -51.5 -16t-22.5 -47l-152 5q7 70 69 109t160 39q104 0 165 -40.5
t61 -110.5q0 -45 -41.5 -76t-116.5 -40l1 13q82 -10 127.5 -49.5t45.5 -98.5q0 -73 -65 -115.5t-176 -42.5z" />
    <glyph glyph-name="uni0438" unicode="&#x438;" horiz-adv-x="596" 
d="M66 0v536h150v-317l174 317h140v-536h-150v308l-170 -308h-144z" />
    <glyph glyph-name="uni0439" unicode="&#x439;" horiz-adv-x="596" 
d="M66 0v536h150v-317l174 317h140v-536h-150v308l-170 -308h-144zM296 592q-70 0 -112 38.5t-45 108.5h87q3 -34 21.5 -49.5t48.5 -15.5t48 15.5t21 49.5h87q-3 -70 -45 -108.5t-111 -38.5z" />
    <glyph glyph-name="uni043A" unicode="&#x43a;" horiz-adv-x="651" 
d="M427 0l-218 268h172l225 -268h-179zM66 0v536h151v-536h-151zM209 268l208 268h177l-213 -268h-172z" />
    <glyph glyph-name="uni043B" unicode="&#x43b;" horiz-adv-x="681" 
d="M46 0v118h31q26 0 40 18.5t18 53.5l38 346h442v-536h-150v424h-156l-29 -275q-7 -73 -42 -111t-97 -38h-95z" />
    <glyph glyph-name="uni043C" unicode="&#x43c;" horiz-adv-x="750" 
d="M66 0v536h177l133 -400l131 400h177v-536h-150v294l-106 -294h-106l-106 294v-294h-150z" />
    <glyph glyph-name="uni043D" unicode="&#x43d;" horiz-adv-x="601" 
d="M66 0v537h150v-537h-150zM386 0v536h150v-536h-150zM101 211v112h386v-112h-386z" />
    <glyph glyph-name="uni043E" unicode="&#x43e;" horiz-adv-x="618" 
d="M309 -12q-82 0 -143 34.5t-95 97.5t-34 148t34 147.5t95 97.5t143 35t143 -35t95 -97.5t34 -147.5t-34 -148t-95 -97.5t-143 -34.5zM309 103q56 0 87 43.5t31 121.5t-31 121.5t-87 43.5t-87 -43.5t-31 -121.5t31 -121.5t87 -43.5z" />
    <glyph glyph-name="uni043F" unicode="&#x43f;" horiz-adv-x="615" 
d="M66 0v536h483v-536h-150v424h-183v-424h-150z" />
    <glyph glyph-name="uni0440" unicode="&#x440;" 
d="M66 -150v686h144l3 -113l-12 5q20 58 65 89t105 31q75 0 125 -37t75.5 -100.5t25.5 -142.5q0 -78 -25.5 -142t-76 -101t-125.5 -37q-39 0 -73 14.5t-58.5 40.5t-35.5 62l13 8v-263h-150zM329 103q53 0 83.5 44t30.5 121t-30.5 121t-83.5 44q-35 0 -60.5 -18.5t-39 -55.5
t-13.5 -91t13.5 -91t39 -55.5t60.5 -18.5z" />
    <glyph glyph-name="uni0441" unicode="&#x441;" horiz-adv-x="598" 
d="M309 -12q-82 0 -143 34.5t-95 97.5t-34 148t34 147.5t95 97.5t143 35q71 0 127.5 -25t91.5 -72t43 -113l-155 -7q-7 50 -35.5 75.5t-71.5 25.5q-56 0 -87 -43t-31 -121t31 -121.5t87 -43.5q43 0 72 26.5t35 80.5l155 -6q-7 -66 -41.5 -114.5t-91 -75t-129.5 -26.5z" />
    <glyph glyph-name="uni0442" unicode="&#x442;" horiz-adv-x="586" 
d="M219 0v424h-180v112h510v-112h-179v-424h-151z" />
    <glyph glyph-name="uni0443" unicode="&#x443;" horiz-adv-x="586" 
d="M110 -150v112h71q26 0 38.5 7.5t19.5 26.5l11 31h-41l-188 509h153l123 -369l115 369h153l-206 -587q-18 -53 -52 -76t-95 -23h-102z" />
    <glyph glyph-name="uni0444" unicode="&#x444;" horiz-adv-x="723" 
d="M361 21q-100 0 -172.5 31t-112 87t-39.5 132q0 77 39.5 132.5t112 86.5t172.5 31t173 -31t112.5 -86.5t39.5 -132.5q0 -76 -39.5 -132t-112.5 -87t-173 -31zM361 139q82 0 128 35.5t46 96.5t-46 96t-128 35q-80 0 -126.5 -35t-46.5 -96t46.5 -96.5t126.5 -35.5zM295 -152
v862h134v-862h-134z" />
    <glyph glyph-name="uni0445" unicode="&#x445;" horiz-adv-x="650" 
d="M46 0l191 272l-186 264h159l115 -172l111 172h163l-185 -265l190 -271h-159l-118 182l-119 -182h-162z" />
    <glyph glyph-name="uni0446" unicode="&#x446;" horiz-adv-x="710" 
d="M504 -152v263h151v-263h-151zM405 0v111h118v-111h-118zM66 536h150v-424h183v424h150v-536h-483v536z" />
    <glyph glyph-name="uni0447" unicode="&#x447;" horiz-adv-x="648" 
d="M432 0v297l27 38q-2 -51 -26.5 -90.5t-65.5 -62t-94 -22.5q-95 0 -151 59.5t-56 160.5v156h150v-120q0 -65 26 -101.5t71 -36.5q38 0 64.5 16t40.5 47.5t14 74.5v120h151v-536h-151z" />
    <glyph glyph-name="uni0448" unicode="&#x448;" horiz-adv-x="860" 
d="M66 0v536h150v-536h-150zM66 0v111h728v-111h-728zM359 0v536h143v-536h-143zM644 0v536h150v-536h-150z" />
    <glyph glyph-name="uni0449" unicode="&#x449;" horiz-adv-x="947" 
d="M751 -152v263h151v-263h-151zM652 0v111h118v-111h-118zM66 0v536h150v-536h-150zM66 0v111h728v-111h-728zM359 0v536h143v-536h-143zM644 0v536h150v-536h-150z" />
    <glyph glyph-name="uni044A" unicode="&#x44a;" horiz-adv-x="673" 
d="M46 424v112h180v-112h-180zM129 0v536h150v-193h109q122 0 185 -44t63 -130q0 -83 -63 -126t-185 -43h-259zM279 104h95q55 0 81.5 15.5t26.5 49.5t-26.5 50.5t-81.5 16.5h-95v-132z" />
    <glyph glyph-name="uni044B" unicode="&#x44b;" horiz-adv-x="871" 
d="M655 0v536h150v-536h-150zM66 0v536h150v-193h108q123 0 186 -44t63 -130q0 -83 -63 -126t-186 -43h-258zM216 104h95q55 0 81.5 15.5t26.5 49.5t-26.5 50.5t-81.5 16.5h-95v-132z" />
    <glyph glyph-name="uni044C" unicode="&#x44c;" horiz-adv-x="610" 
d="M66 0v536h150v-193h108q123 0 186 -44t63 -130q0 -83 -63 -126t-186 -43h-258zM216 104h95q55 0 81.5 15.5t26.5 49.5t-26.5 50.5t-81.5 16.5h-95v-132z" />
    <glyph glyph-name="uni044D" unicode="&#x44d;" horiz-adv-x="609" 
d="M300 -12q-101 0 -170.5 54t-91.5 152h157q12 -44 39 -67.5t66 -23.5q57 0 87.5 43.5t30.5 121.5t-30.5 121t-87.5 43q-40 0 -67 -24t-39 -70h-157q22 99 91.5 154.5t171.5 55.5q83 0 144 -35t95 -97.5t34 -147.5t-34 -148t-95 -97.5t-144 -34.5zM282 220v96h230v-96h-230
z" />
    <glyph glyph-name="uni044E" unicode="&#x44e;" horiz-adv-x="861" 
d="M66 0v536h150v-536h-150zM150 212v112h199v-112h-199zM552 -12q-82 0 -143 34.5t-95 97.5t-34 148t34 147.5t95 97.5t143 35t143.5 -35t95 -97.5t33.5 -147.5t-33.5 -148t-95 -97.5t-143.5 -34.5zM552 103q57 0 87.5 43.5t30.5 121.5t-30.5 121.5t-87.5 43.5
q-56 0 -86.5 -43.5t-30.5 -121.5t30.5 -121.5t86.5 -43.5z" />
    <glyph glyph-name="uni044F" unicode="&#x44f;" horiz-adv-x="625" 
d="M66 0l126 216q-50 24 -78 62.5t-28 87.5q0 83 60.5 126.5t177.5 43.5h235v-536h-149v194h-82l-108 -194h-154zM324 298h86v133h-86q-41 0 -64 -17t-23 -50q0 -31 23 -48.5t64 -17.5z" />
    <glyph glyph-name="uni0450" unicode="&#x450;" horiz-adv-x="605" 
d="M307 -12q-82 0 -142.5 34.5t-94 97.5t-33.5 148t33.5 147.5t93.5 97.5t142 35q80 0 139 -35t91.5 -100t32.5 -155v-30h-377q3 -64 34.5 -95t83.5 -31q38 0 63.5 16t36.5 49l151 -9q-21 -80 -89 -125t-165 -45zM192 320h223q-3 59 -32.5 88t-76.5 29t-77.5 -30.5
t-36.5 -86.5zM262 596l-90 147h145l59 -147h-114z" />
    <glyph glyph-name="uni0451" unicode="&#x451;" horiz-adv-x="605" 
d="M307 -12q-82 0 -142.5 34.5t-94 97.5t-33.5 148t33.5 147.5t93.5 97.5t142 35q80 0 139 -35t91.5 -100t32.5 -155v-30h-377q3 -64 34.5 -95t83.5 -31q38 0 63.5 16t36.5 49l151 -9q-21 -80 -89 -125t-165 -45zM192 320h223q-3 59 -32.5 88t-76.5 29t-77.5 -30.5
t-36.5 -86.5zM130 597v121h143v-121h-143zM345 597v121h143v-121h-143z" />
    <glyph glyph-name="uni0452" unicode="&#x452;" horiz-adv-x="652" 
d="M107 0v718h150v-307l-22 -12q9 55 33.5 88t61 47t78.5 14q56 0 95.5 -25.5t61 -71.5t21.5 -106v-304h-150v250q0 66 -18 100t-64 34q-47 0 -72 -34.5t-25 -99.5v-291h-150zM345 -150v112h34q18 0 30.5 8.5t19.5 23t7 34.5v203h150v-203q0 -87 -43 -132.5t-134 -45.5h-64z
M46 582v84h321v-84h-321z" />
    <glyph glyph-name="uni0453" unicode="&#x453;" horiz-adv-x="498" 
d="M66 0v536h405v-112h-337l82 71v-495h-150zM201 591l59 148h145l-90 -148h-114z" />
    <glyph glyph-name="uni0454" unicode="&#x454;" horiz-adv-x="609" 
d="M309 -12q-82 0 -143 34.5t-95 97.5t-34 148t34 147.5t95 97.5t143 35q103 0 172.5 -55.5t91.5 -154.5h-158q-12 46 -38.5 70t-67.5 24q-56 0 -87 -43t-31 -121t31 -121.5t87 -43.5q39 0 66 23.5t39 67.5h158q-22 -98 -91.5 -152t-171.5 -54zM327 220h-230v96h230v-96z
" />
    <glyph glyph-name="uni0455" unicode="&#x455;" horiz-adv-x="571" 
d="M295 -12q-83 0 -139 23.5t-85.5 64t-33.5 93.5l152 5q7 -38 32 -59t74 -21q40 0 62.5 13t22.5 40q0 17 -8 28.5t-31.5 20t-69.5 15.5q-85 15 -133 35t-68 52t-20 78q0 77 59.5 124.5t178.5 47.5q76 0 127.5 -24t80 -65.5t35.5 -94.5l-151 -6q-3 26 -15.5 44.5t-31.5 29
t-46 10.5q-40 0 -61.5 -16.5t-21.5 -43.5q0 -20 9.5 -32.5t31.5 -20.5t59 -13q86 -12 136.5 -33.5t72.5 -53.5t22 -79q0 -52 -30 -88t-83.5 -55t-126.5 -19z" />
    <glyph glyph-name="uni0456" unicode="&#x456;" horiz-adv-x="281" 
d="M66 0v536h150v-536h-150zM63 602v120h155v-120h-155z" />
    <glyph glyph-name="uni0457" unicode="&#x457;" horiz-adv-x="281" 
d="M66 0v536h150v-536h-150zM-38 599v121h143v-121h-143zM177 599v121h143v-121h-143z" />
    <glyph glyph-name="uni0458" unicode="&#x458;" horiz-adv-x="331" 
d="M-3 -150v112h59q30 0 44.5 12t14.5 48v514h151v-518q0 -90 -40.5 -129t-138.5 -39h-90zM113 602v120h155v-120h-155z" />
    <glyph glyph-name="uni0459" unicode="&#x459;" horiz-adv-x="1010" 
d="M466 0v536h150v-193h108q123 0 186 -44t63 -130q0 -83 -63 -126t-186 -43h-258zM616 104h95q55 0 81.5 15.5t26.5 49.5t-26.5 50.5t-81.5 16.5h-95v-132zM46 0v118h31q26 0 40 18.5t18 53.5l38 346h442v-536h-150v424h-156l-29 -275q-7 -73 -42 -111t-97 -38h-95z" />
    <glyph glyph-name="uni045A" unicode="&#x45a;" horiz-adv-x="930" 
d="M66 0v537h150v-537h-150zM86 232v112h416v-112h-416zM385 0v536h150v-193h109q123 0 186 -44t63 -130q0 -83 -63 -126t-186 -43h-259zM535 104h96q54 0 81 15.5t27 49.5t-27 50.5t-81 16.5h-96v-132z" />
    <glyph glyph-name="uni045B" unicode="&#x45b;" horiz-adv-x="611" 
d="M66 0v710h150v-299h-20q8 47 31.5 77t59 45t77.5 15q60 0 100 -26t60.5 -72t20.5 -105v-345h-150v309q0 60 -18.5 90t-62.5 30q-46 0 -72 -31t-26 -93v-305h-150zM-2 576v87h348v-87h-348z" />
    <glyph glyph-name="uni045C" unicode="&#x45c;" horiz-adv-x="651" 
d="M427 0l-218 268h172l225 -268h-179zM66 0v536h151v-536h-151zM209 268l208 268h177l-213 -268h-172zM248 591l59 148h145l-90 -148h-114z" />
    <glyph glyph-name="uni045D" unicode="&#x45d;" horiz-adv-x="596" 
d="M66 0v536h150v-317l174 317h140v-536h-150v308l-170 -308h-144zM249 598l-90 147h145l59 -147h-114z" />
    <glyph glyph-name="uni045E" unicode="&#x45e;" horiz-adv-x="586" 
d="M110 -150v112h71q26 0 38.5 7.5t19.5 26.5l11 31h-41l-188 509h153l123 -369l115 369h153l-206 -587q-18 -53 -52 -76t-95 -23h-102zM291 592q-70 0 -112 38.5t-45 108.5h87q3 -34 21.5 -49.5t48.5 -15.5t48 15.5t21 49.5h87q-3 -70 -45 -108.5t-111 -38.5z" />
    <glyph glyph-name="uni045F" unicode="&#x45f;" horiz-adv-x="615" 
d="M233 -152v182h150v-182h-150zM66 536h150v-424h183v424h150v-536h-483v536z" />
    <glyph glyph-name="uni0462" unicode="&#x462;" horiz-adv-x="748" 
d="M44 530v89h345v-89h-345zM140 710h152v-245h133q85 0 146 -28.5t93.5 -80.5t32.5 -124q0 -108 -72 -170t-200 -62h-285v710zM292 337v-209h124q60 0 92.5 26.5t32.5 77.5q0 52 -33 78.5t-92 26.5h-124z" />
    <glyph glyph-name="uni0463" unicode="&#x463;" horiz-adv-x="694" 
d="M149 0v718h150v-355h108q120 0 185 -47.5t65 -136.5q0 -86 -65 -132.5t-185 -46.5h-258zM299 104h96q51 0 79 19t28 56t-28 57t-79 20h-96v-152zM46 532v89h356v-89h-356z" />
    <glyph glyph-name="uni046A" unicode="&#x46a;" horiz-adv-x="746" 
d="M12 0l87 258q20 65 60.5 96t97.5 31h231q58 0 98 -31t60 -96l88 -258h-153l-65 205q-10 36 -25.5 46t-43.5 10h-148q-28 0 -44 -10t-26 -46l-64 -205h-153zM301 0v385h145v-385h-145zM302 284l-219 298h153l218 -298h-152zM293 284l218 298h152l-218 -298h-152zM83 582
v128h580v-128h-580z" />
    <glyph glyph-name="uni046B" unicode="&#x46b;" horiz-adv-x="755" 
d="M46 0l76 198q15 41 53.5 64t87.5 23h229q50 0 88 -23t53 -64l76 -198h-148l-53 166q-7 25 -21.5 35t-42.5 10h-133q-28 0 -42.5 -10t-21.5 -35l-53 -166h-148zM308 0v285h140v-285h-140zM299 225l-204 203h141l205 -203h-142zM315 225l205 203h141l-204 -203h-142z
M95 428v108h566v-108h-566z" />
    <glyph glyph-name="uni0472" unicode="&#x472;" horiz-adv-x="776" 
d="M145 271l-10 142q30 15 52.5 23t36.5 9q30 6 70.5 0.5t76.5 -19.5q33 -12 57.5 -19.5t43 -11.5t34 -4.5t28.5 2.5q22 3 43 13.5t40 27.5l9 -137q-19 -13 -37 -20.5t-33 -10.5q-19 -3 -44.5 -1t-59 10t-79.5 23q-36 14 -70.5 19.5t-56.5 2.5q-26 -4 -52.5 -17t-48.5 -32z
M388 -16q-108 0 -185.5 45t-119 128t-41.5 197t41.5 197.5t119 129t185.5 45.5t185.5 -45.5t119 -129t41.5 -197.5t-41.5 -197t-119 -128t-185.5 -45zM388 112q59 0 101.5 28.5t65 82.5t22.5 131t-22.5 131.5t-65 83.5t-101.5 29q-60 0 -102 -29t-64.5 -83.5t-22.5 -131.5
t22.5 -131t64.5 -82.5t102 -28.5z" />
    <glyph glyph-name="uni0473" unicode="&#x473;" horiz-adv-x="618" 
d="M135 182l-13 124q25 18 40.5 26t26.5 9q23 6 52 2.5t60 -18.5q28 -12 47 -19t32 -10t24 -2.5t22 2.5q17 3 32.5 14.5t29.5 30.5l12 -120q-16 -15 -29 -23t-25 -10q-15 -3 -32.5 -2.5t-42 7.5t-64.5 23q-30 14 -54 17.5t-44 0.5q-17 -3 -37 -17t-37 -35zM309 -12
q-82 0 -143 34.5t-95 97.5t-34 148t34 147.5t95 97.5t143 35t143 -35t95 -97.5t34 -147.5t-34 -148t-95 -97.5t-143 -34.5zM309 103q56 0 87 43.5t31 121.5t-31 121.5t-87 43.5t-87 -43.5t-31 -121.5t31 -121.5t87 -43.5z" />
    <glyph glyph-name="uni0474" unicode="&#x474;" horiz-adv-x="773" 
d="M276 0l-257 710h157l189 -538l135 386q25 72 78.5 112t126.5 40h49v-128h-14q-41 0 -65 -18.5t-41 -63.5l-180 -500h-178z" />
    <glyph glyph-name="uni0475" unicode="&#x475;" horiz-adv-x="641" 
d="M217 0l-196 536h154l129 -386l78 236q24 75 75.5 112.5t119.5 37.5h43v-112h-10q-31 0 -53.5 -17t-35.5 -53l-130 -354h-174z" />
    <glyph glyph-name="uni0490" unicode="&#x490;" horiz-adv-x="569" 
d="M74 0v710h484v-128h-332v-582h-152zM406 582v283h152v-283h-152z" />
    <glyph glyph-name="uni0491" unicode="&#x491;" horiz-adv-x="467" 
d="M66 0v536h380v-112h-230v-424h-150zM295 434v258h151v-258h-151z" />
    <glyph glyph-name="uni0492" unicode="&#x492;" horiz-adv-x="663" 
d="M54 264v128h442v-128h-442zM127 0v710h525v-128h-373v-582h-152z" />
    <glyph glyph-name="uni0493" unicode="&#x493;" horiz-adv-x="545" 
d="M46 198v112h348v-112h-348zM102 0v536h406v-112h-337l81 71v-495h-150z" />
    <glyph glyph-name="uni0496" unicode="&#x496;" horiz-adv-x="1081" 
d="M922 -150v244h152v-244h-152zM12 0l265 355l-255 355h190l255 -355l-265 -355h-190zM438 0v710h152v-710h-152zM826 0l-265 355l255 355h190l-256 -355l266 -355h-190z" />
    <glyph glyph-name="uni0497" unicode="&#x497;" horiz-adv-x="1009" 
d="M813 -152v227h150v-227h-150zM46 0l217 268h176l-208 -268h-185zM421 0v536h150v-536h-150zM761 0l-209 268h175l218 -268h-184zM552 268l199 268h184l-208 -268h-175zM263 268l-207 268h185l198 -268h-176z" />
    <glyph glyph-name="uni049A" unicode="&#x49a;" horiz-adv-x="740" 
d="M576 -150v244h152v-244h-152zM499 0l-280 355h173l283 -355h-176zM74 0v710h152v-710h-152zM219 355l272 355h174l-273 -355h-173z" />
    <glyph glyph-name="uni049B" unicode="&#x49b;" horiz-adv-x="680" 
d="M485 -152v227h150v-227h-150zM427 0l-218 268h172l225 -268h-179zM66 0v536h151v-536h-151zM209 268l208 268h177l-213 -268h-172z" />
    <glyph glyph-name="uni04A2" unicode="&#x4a2;" horiz-adv-x="789" 
d="M583 -150v244h152v-244h-152zM74 0v710h152v-337l-67 48h404l-68 -48v337h152v-710h-152v341l68 -48h-404l67 48v-341h-152z" />
    <glyph glyph-name="uni04A3" unicode="&#x4a3;" horiz-adv-x="692" 
d="M477 -152v227h150v-227h-150zM66 0v537h150v-537h-150zM386 0v536h150v-536h-150zM101 211v112h386v-112h-386z" />
    <glyph glyph-name="uni04AE" unicode="&#x4ae;" horiz-adv-x="631" 
d="M240 0v276l-247 434h168l155 -286l154 286h168l-246 -434v-276h-152z" />
    <glyph glyph-name="uni04AF" unicode="&#x4af;" horiz-adv-x="609" 
d="M229 0l-208 536h154l129 -380l129 380h155l-209 -536h-150zM229 -150v231h150v-231h-150z" />
    <glyph glyph-name="uni04B0" unicode="&#x4b0;" horiz-adv-x="700" 
d="M122 186v127h460v-127h-460zM244 0v276l-247 434h168l155 -286l155 286h168l-247 -434v-276h-152z" />
    <glyph glyph-name="uni04B1" unicode="&#x4b1;" horiz-adv-x="609" 
d="M113 -56v112h383v-112h-383zM229 0l-208 536h154l129 -380l129 380h155l-209 -536h-150zM229 -150v231h150v-231h-150z" />
    <glyph glyph-name="uni04B2" unicode="&#x4b2;" horiz-adv-x="755" 
d="M591 -150v244h152v-244h-152zM12 0l241 356l-239 354h176l155 -239l151 239h177l-239 -352l242 -358h-177l-156 243l-154 -243h-177z" />
    <glyph glyph-name="uni04B3" unicode="&#x4b3;" horiz-adv-x="693" 
d="M497 -152v227h150v-227h-150zM46 0l191 272l-186 264h159l115 -172l111 172h163l-185 -265l190 -271h-159l-118 182l-119 -182h-162z" />
    <glyph glyph-name="uni04B6" unicode="&#x4b6;" horiz-adv-x="741" 
d="M535 -150v244h152v-244h-152zM446 0v374l28 38q-2 -50 -30 -90t-74.5 -62t-106.5 -22q-107 0 -167 58.5t-60 158.5v255h152v-218q0 -62 29 -95.5t86 -33.5q44 0 76 15.5t49.5 44.5t17.5 69v218h152v-710h-152z" />
    <glyph glyph-name="uni04B7" unicode="&#x4b7;" horiz-adv-x="722" 
d="M521 -150v225h150v-225h-150zM432 0v297l27 38q-2 -51 -26.5 -90.5t-65.5 -62t-94 -22.5q-95 0 -151 59.5t-56 160.5v156h150v-120q0 -65 26 -101.5t71 -36.5q38 0 64.5 16t40.5 47.5t14 74.5v120h151v-536h-151z" />
    <glyph glyph-name="uni04BA" unicode="&#x4ba;" horiz-adv-x="672" 
d="M226 710v-374l-28 -38q2 51 29.5 90.5t75 61.5t105.5 22q108 0 168 -58.5t60 -158.5v-255h-152v218q0 63 -29 96t-86 33q-43 0 -75.5 -15.5t-50 -44.5t-17.5 -69v-218h-152v710h152z" />
    <glyph glyph-name="uni04BB" unicode="&#x4bb;" horiz-adv-x="611" 
d="M66 0v710h150v-299h-20q8 47 31.5 77t59 45t77.5 15q60 0 100 -26t60.5 -72t20.5 -105v-345h-150v309q0 60 -18.5 90t-62.5 30q-46 0 -72 -31t-26 -93v-305h-150z" />
    <glyph glyph-name="uni04C0" unicode="&#x4c0;" horiz-adv-x="300" 
d="M74 0v710h152v-710h-152z" />
    <glyph glyph-name="uni04CF" unicode="&#x4cf;" horiz-adv-x="298" 
d="M74 0v710h150v-710h-150z" />
    <glyph glyph-name="uni04D8" unicode="&#x4d8;" horiz-adv-x="757" 
d="M568 285h-363q9 -60 32 -98t57 -56.5t80 -18.5q57 0 98 25.5t64 75.5t23 123v25q0 75 -24 128t-66 81t-98 28q-31 0 -60 -12t-51.5 -35.5t-37.5 -58.5l-160 9q22 69 65.5 119.5t105.5 78t139 27.5q101 0 178.5 -43.5t121 -126.5t43.5 -201q0 -92 -27 -161t-74 -115.5
t-109 -70.5t-133 -24q-65 0 -124.5 23t-106 69t-73 114t-26.5 158v56h532z" />
    <glyph glyph-name="uni04D9" unicode="&#x4d9;" horiz-adv-x="605" 
d="M298 548q82 0 143 -35t94.5 -97.5t33.5 -147.5q0 -84 -33.5 -147t-94 -98t-141.5 -35q-80 0 -139 35t-91.5 100t-32.5 155v30h376q-2 64 -33.5 95t-83.5 31q-38 0 -64 -16t-37 -49l-151 9q22 80 89.5 125t164.5 45zM413 216h-223q4 -58 33.5 -87.5t76.5 -29.5t77.5 31
t35.5 86z" />
    <glyph glyph-name="uni04E2" unicode="&#x4e2;" horiz-adv-x="748" 
d="M674 0h-152v473l-280 -473h-170v710h152v-490l283 490h167v-710zM218 781v110h299v-110h-299z" />
    <glyph glyph-name="uni04E3" unicode="&#x4e3;" horiz-adv-x="596" 
d="M66 0v536h150v-317l174 317h140v-536h-150v308l-170 -308h-144zM149 607v110h299v-110h-299z" />
    <glyph glyph-name="uni04E8" unicode="&#x4e8;" horiz-adv-x="776" 
d="M104 291v128h566v-128h-566zM388 -16q-108 0 -185.5 45t-119 128t-41.5 197t41.5 197.5t119 129t185.5 45.5t185.5 -45.5t119 -129t41.5 -197.5t-41.5 -197t-119 -128t-185.5 -45zM387 112q60 0 102.5 28.5t65 82.5t22.5 131t-22.5 131.5t-65 83.5t-102.5 29
q-59 0 -101 -29t-64.5 -83.5t-22.5 -131.5t22.5 -131t65 -82.5t100.5 -28.5z" />
    <glyph glyph-name="uni04E9" unicode="&#x4e9;" horiz-adv-x="620" 
d="M116 212v112h387v-112h-387zM307 -12q-82 0 -143 34.5t-95 97.5t-34 148t34 147.5t95 97.5t143 35t143.5 -35t95 -97.5t33.5 -147.5t-33.5 -148t-95 -97.5t-143.5 -34.5zM307 103q57 0 87.5 43.5t30.5 121.5t-30.5 121.5t-87.5 43.5q-56 0 -86.5 -43.5t-30.5 -121.5
t30.5 -121.5t86.5 -43.5z" />
    <glyph glyph-name="uni04EE" unicode="&#x4ee;" horiz-adv-x="612" 
d="M106 0v124h80q25 0 39.5 8t20.5 27l18 48h-54l-191 503h157l132 -373l129 373h156l-219 -611q-18 -51 -54 -75t-94 -24h-120zM158 781v110h299v-110h-299z" />
    <glyph glyph-name="uni04EF" unicode="&#x4ef;" horiz-adv-x="586" 
d="M110 -150v112h71q26 0 38.5 7.5t19.5 26.5l11 31h-41l-188 509h153l123 -369l115 369h153l-206 -587q-18 -53 -52 -76t-95 -23h-102zM143 607v110h299v-110h-299z" />
    <glyph glyph-name="uni0E3F" unicode="&#xe3f;" horiz-adv-x="684" 
d="M74 0v710h240q142 0 215.5 -48.5t73.5 -148.5q0 -42 -18.5 -74t-53 -50.5t-81.5 -22.5l-1 2q89 -6 136.5 -48.5t47.5 -118.5q0 -96 -72 -148.5t-207 -52.5h-280zM226 124h126q64 0 97 23t33 67q0 45 -32.5 68.5t-97.5 23.5h-126v-182zM291 -91v896h78v-896h-78zM226 416
h95q66 0 98.5 21.5t32.5 62.5q0 43 -32.5 64.5t-98.5 21.5h-95v-170z" />
    <glyph glyph-name="uni1E20" unicode="&#x1e20;" horiz-adv-x="738" 
d="M370 -16q-103 0 -176 47t-112.5 130.5t-39.5 192.5q0 107 40 191t115.5 132.5t181.5 48.5q92 0 155.5 -30.5t101.5 -86.5t53 -132l-157 -7q-11 59 -46.5 93.5t-105.5 34.5q-61 0 -101.5 -32t-60 -87t-19.5 -125q0 -71 19.5 -125.5t60 -85.5t104.5 -31q47 0 81.5 19t54 52
t23.5 75h-162v111h311v-369h-94l-8 152l18 -8q-10 -47 -44 -83t-83.5 -56.5t-109.5 -20.5zM231 781v110h299v-110h-299z" />
    <glyph glyph-name="uni1E21" unicode="&#x1e21;" 
d="M306 -162q-77 0 -128.5 19t-82 53t-42.5 78l154 11q8 -26 30.5 -41t68.5 -15q54 0 82.5 25.5t28.5 81.5v57q-19 -37 -61 -59.5t-94 -22.5q-66 0 -117 32.5t-79.5 91t-28.5 137.5q0 77 28.5 136t79 92.5t115.5 33.5q59 0 99.5 -26t61.5 -69v83h147v-483q0 -72 -33 -119.5
t-92 -71.5t-137 -24zM305 136q52 0 82.5 40t30.5 111q0 47 -13.5 81t-39 52t-60.5 18q-54 0 -84 -41t-30 -110q0 -70 31 -110.5t83 -40.5zM160 607v110h299v-110h-299z" />
    <glyph glyph-name="Wgrave" unicode="&#x1e80;" horiz-adv-x="1015" 
d="M229 0l-192 710h159l122 -500l123 500h133l124 -500l121 500h159l-191 -710h-164l-116 454l-116 -454h-162zM460 772l-90 147h145l59 -147h-114z" />
    <glyph glyph-name="wgrave" unicode="&#x1e81;" horiz-adv-x="849" 
d="M180 0l-159 536h151l92 -363l99 363h122l99 -363l93 363h151l-159 -536h-146l-99 335l-99 -335h-145zM377 598l-90 147h145l59 -147h-114z" />
    <glyph glyph-name="Wacute" unicode="&#x1e82;" horiz-adv-x="1015" 
d="M229 0l-192 710h159l122 -500l123 500h133l124 -500l121 500h159l-191 -710h-164l-116 454l-116 -454h-162zM439 765l59 148h145l-90 -148h-114z" />
    <glyph glyph-name="wacute" unicode="&#x1e83;" horiz-adv-x="849" 
d="M180 0l-159 536h151l92 -363l99 363h122l99 -363l93 363h151l-159 -536h-146l-99 335l-99 -335h-145zM357 591l59 148h145l-90 -148h-114z" />
    <glyph glyph-name="Wdieresis" unicode="&#x1e84;" horiz-adv-x="1015" 
d="M229 0l-192 710h159l122 -500l123 500h133l124 -500l121 500h159l-191 -710h-164l-116 454l-116 -454h-162zM329 773v121h143v-121h-143zM544 773v121h143v-121h-143z" />
    <glyph glyph-name="wdieresis" unicode="&#x1e85;" horiz-adv-x="849" 
d="M180 0l-159 536h151l92 -363l99 363h122l99 -363l93 363h151l-159 -536h-146l-99 335l-99 -335h-145zM246 599v121h143v-121h-143zM461 599v121h143v-121h-143z" />
    <glyph glyph-name="uni1E9E" unicode="&#x1e9e;" horiz-adv-x="741" 
d="M74 0v469q0 117 66.5 179t192.5 62h323v-131l-264 -236v84q147 0 223 -53t76 -153q0 -70 -32.5 -119t-94.5 -75.5t-150 -26.5h-121v128h121q56 0 88.5 25t32.5 70q0 46 -34.5 70.5t-95.5 24.5h-98v105l247 230l10 -71h-231q-53 0 -80 -28.5t-27 -84.5v-469h-152z" />
    <glyph glyph-name="uni1EBC" unicode="&#x1ebc;" horiz-adv-x="622" 
d="M74 0v710h494v-128h-342v-163h330v-126h-330v-165h350v-128h-502zM378 774q-23 0 -40 7t-36 23q-11 9 -19.5 13.5t-19.5 4.5q-15 0 -25.5 -11t-12.5 -42h-75q1 65 30 103.5t80 38.5q24 0 43 -7t39 -23q12 -9 20.5 -13.5t17.5 -4.5q16 0 26 11.5t12 43.5h74
q-1 -66 -30.5 -105t-83.5 -39z" />
    <glyph glyph-name="uni1EBD" unicode="&#x1ebd;" horiz-adv-x="605" 
d="M307 -12q-82 0 -142.5 34.5t-94 97.5t-33.5 148t33.5 147.5t93.5 97.5t142 35q80 0 139 -35t91.5 -100t32.5 -155v-30h-377q3 -64 34.5 -95t83.5 -31q38 0 63.5 16t36.5 49l151 -9q-21 -80 -89 -125t-165 -45zM192 320h223q-3 59 -32.5 88t-76.5 29t-77.5 -30.5
t-36.5 -86.5zM366 598q-23 0 -40 7t-36 23q-11 9 -19.5 13.5t-19.5 4.5q-15 0 -25.5 -11t-12.5 -42h-75q1 65 30 103.5t80 38.5q24 0 43 -7t39 -23q12 -9 20.5 -13.5t17.5 -4.5q16 0 26 11.5t12 43.5h74q-1 -66 -30.5 -105t-83.5 -39z" />
    <glyph glyph-name="Ygrave" unicode="&#x1ef2;" horiz-adv-x="631" 
d="M240 0v276l-247 434h168l155 -286l154 286h168l-246 -434v-276h-152zM269 772l-90 147h145l59 -147h-114z" />
    <glyph glyph-name="ygrave" unicode="&#x1ef3;" horiz-adv-x="586" 
d="M110 -150v112h71q26 0 38.5 7.5t19.5 26.5l11 31h-41l-188 509h153l123 -369l115 369h153l-206 -587q-18 -53 -52 -76t-95 -23h-102zM247 598l-90 147h145l59 -147h-114z" />
    <glyph glyph-name="uni1EF8" unicode="&#x1ef8;" horiz-adv-x="631" 
d="M240 0v276l-247 434h168l155 -286l154 286h168l-246 -434v-276h-152zM373 774q-23 0 -40 7t-36 23q-11 9 -19.5 13.5t-19.5 4.5q-15 0 -25.5 -11t-12.5 -42h-75q1 65 30 103.5t80 38.5q24 0 43 -7t39 -23q12 -9 20.5 -13.5t17.5 -4.5q16 0 26 11.5t12 43.5h74
q-1 -66 -30.5 -105t-83.5 -39z" />
    <glyph glyph-name="uni1EF9" unicode="&#x1ef9;" horiz-adv-x="586" 
d="M110 -150v112h71q26 0 38.5 7.5t19.5 26.5l11 31h-41l-188 509h153l123 -369l115 369h153l-206 -587q-18 -53 -52 -76t-95 -23h-102zM351 600q-23 0 -40 7t-36 23q-11 9 -19.5 13.5t-19.5 4.5q-15 0 -25.5 -11t-12.5 -42h-75q1 65 30 103.5t80 38.5q24 0 43 -7t39 -23
q12 -9 20.5 -13.5t17.5 -4.5q16 0 26 11.5t12 43.5h74q-1 -66 -30.5 -105t-83.5 -39z" />
    <glyph glyph-name="endash" unicode="&#x2013;" horiz-adv-x="595" 
d="M37 231v122h521v-122h-521z" />
    <glyph glyph-name="emdash" unicode="&#x2014;" horiz-adv-x="911" 
d="M37 231v122h837v-122h-837z" />
    <glyph glyph-name="quoteleft" unicode="&#x2018;" horiz-adv-x="247" 
d="M193 726l-54 -158h66v-154h-163v137l70 175h81z" />
    <glyph glyph-name="quoteright" unicode="&#x2019;" horiz-adv-x="247" 
d="M53 399l54 158h-65v153h163v-137l-70 -174h-82z" />
    <glyph glyph-name="quotesinglbase" unicode="&#x201a;" horiz-adv-x="236" 
d="M48 -158l54 158h-65v153h163v-137l-70 -174h-82z" />
    <glyph glyph-name="quotedblleft" unicode="&#x201c;" horiz-adv-x="462" 
d="M193 726l-54 -158h66v-154h-163v137l70 175h81zM409 726l-54 -158h65v-154h-163v137l70 175h82z" />
    <glyph glyph-name="quotedblright" unicode="&#x201d;" horiz-adv-x="462" 
d="M269 399l54 158h-65v153h163v-137l-70 -174h-82zM53 399l54 158h-65v153h163v-137l-70 -174h-82z" />
    <glyph glyph-name="quotedblbase" unicode="&#x201e;" horiz-adv-x="452" 
d="M263 -163l54 158h-65v153h163v-137l-70 -174h-82zM48 -163l54 158h-65v153h163v-137l-70 -174h-82z" />
    <glyph glyph-name="dagger" unicode="&#x2020;" horiz-adv-x="586" 
d="M223 0v710h140v-710h-140zM74 422v114h438v-114h-438z" />
    <glyph glyph-name="daggerdbl" unicode="&#x2021;" horiz-adv-x="586" 
d="M223 0v710h140v-710h-140zM74 170v114h438v-114h-438zM74 422v114h438v-114h-438z" />
    <glyph glyph-name="bullet" unicode="&#x2022;" horiz-adv-x="362" 
d="M181 162q-43 0 -75.5 18t-50.5 50t-18 72q0 41 18 72.5t50.5 50t75.5 18.5q42 0 74.5 -18.5t51 -50t18.5 -72.5q0 -40 -18.5 -72t-51 -50t-74.5 -18z" />
    <glyph glyph-name="ellipsis" unicode="&#x2026;" horiz-adv-x="695" 
d="M37 0v153h163v-153h-163zM266 0v153h163v-153h-163zM496 0v153h163v-153h-163z" />
    <glyph glyph-name="perthousand" unicode="&#x2030;" horiz-adv-x="1210" 
d="M203 366q-72 0 -119 43.5t-47 132.5q0 90 47 133t119 43t118.5 -43t46.5 -133q0 -89 -46.5 -132.5t-118.5 -43.5zM203 442q32 0 48 25t16 75t-16 75t-48 25q-31 0 -47.5 -25t-16.5 -75t16.5 -75t47.5 -25zM623 -8q-72 0 -119 43.5t-47 132.5q0 90 47 133t119 43t119 -43
t47 -133q0 -89 -47 -132.5t-119 -43.5zM623 68q32 0 48 25t16 75t-16 75t-48 25q-31 0 -47.5 -25t-16.5 -75t16.5 -75t47.5 -25zM1008 -8q-72 0 -119 43.5t-47 132.5q0 90 47 133t119 43t118.5 -43t46.5 -133q0 -89 -46.5 -132.5t-118.5 -43.5zM1008 68q32 0 48 25t16 75
t-16 75t-48 25q-31 0 -47.5 -25t-16.5 -75t16.5 -75t47.5 -25zM131 0l472 710h92l-472 -710h-92z" />
    <glyph glyph-name="minute" unicode="&#x2032;" horiz-adv-x="255" 
d="M40 475l39 235h136l-52 -235h-123z" />
    <glyph glyph-name="second" unicode="&#x2033;" horiz-adv-x="436" 
d="M40 475l39 235h136l-52 -235h-123zM221 475l39 235h136l-52 -235h-123z" />
    <glyph glyph-name="guilsinglleft" unicode="&#x2039;" horiz-adv-x="381" 
d="M344 76h-167l-140 164v72l140 164h167l-171 -200z" />
    <glyph glyph-name="guilsinglright" unicode="&#x203a;" horiz-adv-x="381" 
d="M37 76l171 200l-171 200h167l140 -164v-72l-140 -164h-167z" />
    <glyph glyph-name="fraction" unicode="&#x2044;" horiz-adv-x="164" 
d="M-200 0l472 710h92l-472 -710h-92z" />
    <glyph glyph-name="uni2070" unicode="&#x2070;" horiz-adv-x="427" 
d="M213 315q-80 0 -126.5 53.5t-46.5 148.5t46 148t127 53q82 0 128 -53t46 -148t-46 -148.5t-128 -53.5zM213 392q39 0 57 31t18 94t-18 93.5t-57 30.5q-38 0 -56.5 -30t-18.5 -94q0 -59 20 -92t55 -33zM165 382l-34 51l131 219l34 -50z" />
    <glyph glyph-name="uni2074" unicode="&#x2074;" horiz-adv-x="360" 
d="M192 323v76h-182v71l173 240h108v-234h49v-77h-49v-76h-99zM103 476h89v116z" />
    <glyph glyph-name="uni2075" unicode="&#x2075;" horiz-adv-x="381" 
d="M194 315q-76 0 -112.5 29t-41.5 80l98 5q3 -19 17.5 -28.5t38.5 -9.5q31 0 45 17t14 45t-14.5 44.5t-40.5 16.5q-23 0 -36.5 -9t-22.5 -23h-92l30 228h250v-77h-168l-9 -76q11 11 28.5 17t43.5 6q65 0 97 -34.5t32 -92.5q0 -63 -40.5 -100.5t-116.5 -37.5z" />
    <glyph glyph-name="uni2076" unicode="&#x2076;" horiz-adv-x="402" 
d="M201 315q-75 0 -118 45.5t-43 140.5q0 65 19 113.5t58.5 76t100.5 27.5t97 -25.5t45 -72.5l-88 -11q-3 17 -18 26t-39 9q-35 0 -55 -23t-24 -69q11 14 31.5 24t51.5 10q65 0 103.5 -33.5t38.5 -100.5q0 -64 -43.5 -100.5t-116.5 -36.5zM204 391q30 0 48 17t18 46
q0 31 -17.5 47t-48.5 16q-18 0 -33 -7.5t-22.5 -21.5t-8.5 -33q-1 -30 17 -47t47 -17z" />
    <glyph glyph-name="uni2077" unicode="&#x2077;" horiz-adv-x="316" 
d="M85 322q0 55 13.5 108.5t38 103.5t58.5 93h-175v83h276v-74q-39 -46 -64 -94t-37 -101.5t-12 -118.5h-98z" />
    <glyph glyph-name="uni2078" unicode="&#x2078;" horiz-adv-x="386" 
d="M193 315q-87 0 -125 30.5t-38 80.5q0 40 23 66.5t67 39.5q-35 11 -54 30.5t-19 56.5q0 47 34 73t112 26t112 -26t34 -73q0 -37 -19 -56.5t-54 -30.5q44 -14 67 -40.5t23 -65.5q0 -50 -38 -80.5t-125 -30.5zM193 391q32 0 48.5 12t16.5 38q0 23 -16.5 39t-48.5 16
t-48.5 -16t-16.5 -39q0 -26 16.5 -38t48.5 -12zM193 560q24 0 37.5 10t13.5 32q0 20 -13 30t-38 10t-38 -10t-13 -30q0 -22 14 -32t37 -10z" />
    <glyph glyph-name="uni2079" unicode="&#x2079;" horiz-adv-x="402" 
d="M201 718q76 0 118.5 -45.5t42.5 -140.5q0 -65 -19 -113.5t-58 -76t-101 -27.5q-61 0 -97 25.5t-45 72.5l88 11q4 -16 19 -25.5t38 -9.5q35 0 55.5 23t23.5 69q-10 -13 -30.5 -23.5t-52.5 -10.5q-65 0 -103 34t-38 100q0 64 43 100.5t116 36.5zM199 642q-31 0 -48.5 -17
t-17.5 -46q0 -31 17 -47t48 -16q20 0 34 7.5t22.5 21.5t8.5 33q1 30 -17 47t-47 17z" />
    <glyph glyph-name="uni2080" unicode="&#x2080;" horiz-adv-x="427" 
d="M213 -108q-80 0 -126.5 53.5t-46.5 148.5t46 148t127 53q82 0 128 -53t46 -148t-46 -148.5t-128 -53.5zM213 -31q39 0 57 31t18 94t-18 93.5t-57 30.5q-38 0 -56.5 -30t-18.5 -94q0 -59 20 -92t55 -33zM165 -41l-34 51l131 219l34 -50z" />
    <glyph glyph-name="uni2081" unicode="&#x2081;" horiz-adv-x="282" 
d="M123 -100v223l-103 -1v74h28q46 0 69.5 25t23.5 66h81v-387h-99z" />
    <glyph glyph-name="uni2082" unicode="&#x2082;" horiz-adv-x="372" 
d="M44 -100q0 54 8 89t31 60t66 46l47 24q17 8 26 15t13.5 16.5t4.5 24.5q0 20 -13 32t-37 12q-27 0 -41 -13t-19 -44l-90 5q7 61 45.5 94.5t103.5 33.5q73 0 107 -33t34 -85q0 -46 -23.5 -74t-68.5 -50l-45 -22q-27 -13 -37 -25t-10 -23h185v-83h-287z" />
    <glyph glyph-name="uni2083" unicode="&#x2083;" horiz-adv-x="369" 
d="M180 -108q-60 0 -93.5 13t-48.5 38.5t-18 62.5l98 4q2 -19 16.5 -30.5t45.5 -11.5q28 0 44.5 12.5t16.5 35.5q0 22 -16 35t-49 13h-31v68h31q23 0 36.5 11t13.5 30q0 22 -11.5 34t-39.5 12q-24 0 -38 -11.5t-16 -31.5l-97 5q6 55 42 84.5t109 29.5q79 0 113.5 -29
t34.5 -75q0 -35 -18.5 -57t-54.5 -31q47 -9 68 -32.5t21 -60.5q0 -51 -39.5 -84.5t-119.5 -33.5z" />
    <glyph glyph-name="uni2084" unicode="&#x2084;" horiz-adv-x="360" 
d="M192 -100v76h-182v71l173 240h108v-234h49v-77h-49v-76h-99zM103 53h89v116z" />
    <glyph glyph-name="uni2085" unicode="&#x2085;" horiz-adv-x="381" 
d="M194 -108q-76 0 -112.5 29t-41.5 80l98 5q3 -19 17.5 -28.5t38.5 -9.5q31 0 45 17t14 45t-14.5 44.5t-40.5 16.5q-23 0 -36.5 -9t-22.5 -23h-92l30 228h250v-77h-168l-9 -76q11 11 28.5 17t43.5 6q65 0 97 -34.5t32 -92.5q0 -63 -40.5 -100.5t-116.5 -37.5z" />
    <glyph glyph-name="uni2086" unicode="&#x2086;" horiz-adv-x="402" 
d="M201 -108q-75 0 -118 45.5t-43 140.5q0 65 19 113.5t58.5 76t100.5 27.5t97 -25.5t45 -72.5l-88 -11q-3 17 -18 26t-39 9q-35 0 -55 -23t-24 -69q11 14 31.5 24t51.5 10q65 0 103.5 -33.5t38.5 -100.5q0 -64 -43.5 -100.5t-116.5 -36.5zM204 -32q30 0 48 17t18 46
q0 31 -17.5 47t-48.5 16q-18 0 -33 -7.5t-22.5 -21.5t-8.5 -33q-1 -30 17 -47t47 -17z" />
    <glyph glyph-name="uni2087" unicode="&#x2087;" horiz-adv-x="316" 
d="M85 -100q0 55 13.5 108.5t38 103.5t58.5 93h-175v83h276v-74q-39 -46 -64 -94t-37 -101.5t-12 -118.5h-98z" />
    <glyph glyph-name="uni2088" unicode="&#x2088;" horiz-adv-x="386" 
d="M193 -108q-87 0 -125 30.5t-38 80.5q0 40 23 66.5t67 39.5q-35 11 -54 30.5t-19 56.5q0 47 34 73t112 26t112 -26t34 -73q0 -37 -19 -56.5t-54 -30.5q44 -14 67 -40.5t23 -65.5q0 -50 -38 -80.5t-125 -30.5zM193 -32q32 0 48.5 12t16.5 38q0 23 -16.5 39t-48.5 16
t-48.5 -16t-16.5 -39q0 -26 16.5 -38t48.5 -12zM193 137q24 0 37.5 10t13.5 32q0 20 -13 30t-38 10t-38 -10t-13 -30q0 -22 14 -32t37 -10z" />
    <glyph glyph-name="uni2089" unicode="&#x2089;" horiz-adv-x="402" 
d="M201 295q76 0 118.5 -45.5t42.5 -140.5q0 -65 -19 -113.5t-58 -76t-101 -27.5q-61 0 -97 25.5t-45 72.5l88 11q4 -16 19 -25.5t38 -9.5q35 0 55.5 23t23.5 69q-10 -13 -30.5 -23.5t-52.5 -10.5q-65 0 -103 34t-38 100q0 64 43 100.5t116 36.5zM199 219q-31 0 -48.5 -17
t-17.5 -46q0 -31 17 -47t48 -16q20 0 34 7.5t22.5 21.5t8.5 33q1 30 -17 47t-47 17z" />
    <glyph glyph-name="uni20AA" unicode="&#x20aa;" horiz-adv-x="865" 
d="M276 0v542h118v-446h212q28 0 44 16.5t16 44.5v553h125v-560q0 -69 -40.5 -109.5t-109.5 -40.5h-365zM74 0v710h366q69 0 109 -40.5t40 -109.5v-392h-118v385q0 28 -16 44.5t-45 16.5h-212v-614h-124z" />
    <glyph glyph-name="Euro" unicode="&#x20ac;" horiz-adv-x="765" 
d="M441 -16q-68 0 -126.5 27.5t-101.5 77.5t-67 117.5t-24 147.5t23.5 148t67 118t102 78t126.5 28q70 0 128.5 -30t99 -85.5t56.5 -130.5l-157 -8q-13 58 -47.5 92t-82.5 34q-51 0 -87 -31.5t-54.5 -86t-18.5 -126.5q0 -71 18.5 -125.5t54.5 -85.5t87 -31t85.5 38t45.5 99
l159 -8q-15 -78 -55 -136t-99.5 -89.5t-132.5 -31.5zM52 235v81h413l-11 -81h-402zM52 385v81h434l-12 -81h-422z" />
    <glyph glyph-name="uni20B4" unicode="&#x20b4;" horiz-adv-x="727" 
d="M52 382v82h401q11 10 16.5 22t5.5 27q0 37 -26 62t-74 25q-41 0 -68.5 -22t-45.5 -61l-155 13q26 91 94 143.5t168 52.5q84 0 142 -25.5t89 -72t31 -109.5q0 -18 -4 -32t-11 -23h60v-82h-623zM360 -12q-79 0 -137 24.5t-89 69t-31 103.5q0 16 2.5 28.5t6.5 20.5h-60v82
h623v-82h-403q-6 -9 -9.5 -19t-3.5 -23q0 -33 27 -55t70 -22t74.5 18.5t45.5 50.5l166 -9q-22 -86 -97.5 -136.5t-184.5 -50.5z" />
    <glyph glyph-name="uni20B9" unicode="&#x20b9;" horiz-adv-x="710" 
d="M342 0l-268 248v117h228q43 0 71 12t42 36.5t14 61.5t-14 61t-42 36t-71 12h-228v118h237q80 0 141.5 -26t96.5 -76t35 -121t-33.5 -122.5t-94.5 -78.5t-145 -27h-54l278 -251h-193zM74 432v82h585v-82h-585zM74 629v81h585v-81h-585z" />
    <glyph glyph-name="uni20BD" unicode="&#x20bd;" horiz-adv-x="736" 
d="M40 99v84h396v-84h-396zM139 0v710h284q128 0 200.5 -62t72.5 -170q0 -71 -33 -123.5t-94 -81t-146 -28.5h-132v-245h-152zM291 373h123q60 0 93 26.5t33 78.5q0 51 -33 77.5t-93 26.5h-123v-209z" />
    <glyph glyph-name="uni2107" unicode="&#x2107;" horiz-adv-x="599" 
d="M296 -16q-77 0 -136 27.5t-91.5 76t-32.5 111.5q0 52 23 92t67 65t106 32l1 -17q-54 7 -92.5 29.5t-59.5 57.5t-21 81q0 55 29.5 97t82.5 66t124 24q47 0 92 -13t84.5 -36.5t70.5 -56.5l-78 -96q-31 41 -75.5 66.5t-85.5 25.5q-36 0 -62 -11t-40.5 -31t-14.5 -47
q0 -34 17.5 -57t44 -33.5t55.5 -10.5l45 1v-107l-45 1q-43 1 -74.5 -12.5t-49 -38.5t-17.5 -61q0 -34 17.5 -60t49 -40.5t74.5 -14.5q31 0 64 12.5t64.5 35.5t57.5 54l73 -98q-26 -34 -68 -59.5t-93.5 -40t-105.5 -14.5z" />
    <glyph glyph-name="uni2116" unicode="&#x2116;" horiz-adv-x="1169" 
d="M759 0v102h306v-102h-306zM74 0v710h168l282 -490v490h152v-710h-170l-280 473v-473h-152zM912 172q-84 0 -133.5 48t-49.5 127t49 127t134 48t134 -48t49 -127t-49.5 -127t-133.5 -48zM912 252q33 0 50 24t17 71q0 46 -17 70.5t-50 24.5t-50 -25t-17 -70q0 -46 17 -70.5
t50 -24.5z" />
    <glyph glyph-name="uni2117" unicode="&#x2117;" horiz-adv-x="649" 
d="M325 160q-59 0 -110.5 22.5t-90 61t-60.5 90t-22 110.5t22 110t60.5 89.5t90 60.5t110.5 22q58 0 109.5 -22t90 -60.5t60.5 -89.5t22 -110t-22 -110.5t-60.5 -90t-90 -61t-109.5 -22.5zM325 225q61 0 109.5 30t77 80t28.5 109t-28.5 108.5t-77 79t-109.5 29.5
t-109.5 -29.5t-77.5 -79t-29 -108.5t29 -109t77.5 -80t109.5 -30zM220 295v299h120q62 0 93.5 -26t31.5 -69q0 -45 -31.5 -71t-93.5 -26h-41v-107h-79zM298 462h35q23 0 37 8.5t14 26.5t-14 26t-37 8h-35v-69z" />
    <glyph glyph-name="trademark" unicode="&#x2122;" horiz-adv-x="910" 
d="M582 359l-136 351h84l118 -320h-48l119 320h77l-130 -351h-84zM173 359v350h97v-350h-97zM74 625v85h294v-85h-294zM412 359v351h91v-351h-91zM745 359v351h91v-351h-91z" />
    <glyph glyph-name="uni2153" unicode="&#x2153;" horiz-adv-x="843" 
d="M123 323v223l-103 -1v74h28q46 0 69.5 25t23.5 66h81v-387h-99zM110 0l472 710h92l-472 -710h-92zM654 -8q-60 0 -93.5 13t-48.5 38.5t-18 62.5l98 4q2 -19 16.5 -30.5t45.5 -11.5q28 0 44.5 12.5t16.5 35.5q0 22 -16 35t-49 13h-31v68h31q23 0 36.5 11t13.5 30
q0 22 -11.5 34t-39.5 12q-24 0 -38 -11.5t-16 -31.5l-97 5q6 55 42 84.5t109 29.5q79 0 113.5 -29t34.5 -75q0 -35 -18.5 -57t-54.5 -31q47 -9 68 -32.5t21 -60.5q0 -51 -39.5 -84.5t-119.5 -33.5z" />
    <glyph glyph-name="uni2154" unicode="&#x2154;" horiz-adv-x="905" 
d="M44 323q0 54 8 89t31 60t66 46l47 24q17 8 26 15t13.5 16.5t4.5 24.5q0 20 -13 32t-37 12q-27 0 -41 -13t-19 -44l-90 5q7 61 45.5 94.5t103.5 33.5q73 0 107 -33t34 -85q0 -46 -23.5 -74t-68.5 -50l-45 -22q-27 -13 -37 -25t-10 -23h185v-83h-287zM172 0l472 710h92
l-472 -710h-92zM716 -8q-60 0 -93.5 13t-48.5 38.5t-18 62.5l98 4q2 -19 16.5 -30.5t45.5 -11.5q28 0 44.5 12.5t16.5 35.5q0 22 -16 35t-49 13h-31v68h31q23 0 36.5 11t13.5 30q0 22 -11.5 34t-39.5 12q-24 0 -38 -11.5t-16 -31.5l-97 5q6 55 42 84.5t109 29.5
q79 0 113.5 -29t34.5 -75q0 -35 -18.5 -57t-54.5 -31q47 -9 68 -32.5t21 -60.5q0 -51 -39.5 -84.5t-119.5 -33.5z" />
    <glyph glyph-name="uni2155" unicode="&#x2155;" horiz-adv-x="855" 
d="M123 323v223l-103 -1v74h28q46 0 69.5 25t23.5 66h81v-387h-99zM110 0l472 710h92l-472 -710h-92zM668 -8q-76 0 -112.5 29t-41.5 80l98 5q3 -19 17.5 -28.5t38.5 -9.5q31 0 45 17t14 45t-14.5 44.5t-40.5 16.5q-23 0 -36.5 -9t-22.5 -23h-92l30 228h250v-77h-168l-9 -76
q11 11 28.5 17t43.5 6q65 0 97 -34.5t32 -92.5q0 -63 -40.5 -100.5t-116.5 -37.5z" />
    <glyph glyph-name="oneeighth" unicode="&#x215b;" horiz-adv-x="860" 
d="M123 323v223l-103 -1v74h28q46 0 69.5 25t23.5 66h81v-387h-99zM110 0l472 710h92l-472 -710h-92zM667 -8q-87 0 -125 30.5t-38 80.5q0 40 23 66.5t67 39.5q-35 11 -54 30.5t-19 56.5q0 47 34 73t112 26t112 -26t34 -73q0 -37 -19 -56.5t-54 -30.5q44 -14 67 -40.5
t23 -65.5q0 -50 -38 -80.5t-125 -30.5zM667 68q32 0 48.5 12t16.5 38q0 23 -16.5 39t-48.5 16t-48.5 -16t-16.5 -39q0 -26 16.5 -38t48.5 -12zM667 237q24 0 37.5 10t13.5 32q0 20 -13 30t-38 10t-38 -10t-13 -30q0 -22 14 -32t37 -10z" />
    <glyph glyph-name="threeeighths" unicode="&#x215c;" horiz-adv-x="919" 
d="M180 315q-60 0 -93.5 13t-48.5 38.5t-18 62.5l98 4q2 -19 16.5 -30.5t45.5 -11.5q28 0 44.5 12.5t16.5 35.5q0 22 -16 35t-49 13h-31v68h31q23 0 36.5 11t13.5 30q0 22 -11.5 34t-39.5 12q-24 0 -38 -11.5t-16 -31.5l-97 5q6 55 42 84.5t109 29.5q79 0 113.5 -29
t34.5 -75q0 -35 -18.5 -57t-54.5 -31q47 -9 68 -32.5t21 -60.5q0 -51 -39.5 -84.5t-119.5 -33.5zM169 0l472 710h92l-472 -710h-92zM726 -8q-87 0 -125 30.5t-38 80.5q0 40 23 66.5t67 39.5q-35 11 -54 30.5t-19 56.5q0 47 34 73t112 26t112 -26t34 -73q0 -37 -19 -56.5
t-54 -30.5q44 -14 67 -40.5t23 -65.5q0 -50 -38 -80.5t-125 -30.5zM726 68q32 0 48.5 12t16.5 38q0 23 -16.5 39t-48.5 16t-48.5 -16t-16.5 -39q0 -26 16.5 -38t48.5 -12zM726 237q24 0 37.5 10t13.5 32q0 20 -13 30t-38 10t-38 -10t-13 -30q0 -22 14 -32t37 -10z" />
    <glyph glyph-name="fiveeighths" unicode="&#x215d;" horiz-adv-x="931" 
d="M194 315q-76 0 -112.5 29t-41.5 80l98 5q3 -19 17.5 -28.5t38.5 -9.5q31 0 45 17t14 45t-14.5 44.5t-40.5 16.5q-23 0 -36.5 -9t-22.5 -23h-92l30 228h250v-77h-168l-9 -76q11 11 28.5 17t43.5 6q65 0 97 -34.5t32 -92.5q0 -63 -40.5 -100.5t-116.5 -37.5zM181 0l472 710
h92l-472 -710h-92zM738 -8q-87 0 -125 30.5t-38 80.5q0 40 23 66.5t67 39.5q-35 11 -54 30.5t-19 56.5q0 47 34 73t112 26t112 -26t34 -73q0 -37 -19 -56.5t-54 -30.5q44 -14 67 -40.5t23 -65.5q0 -50 -38 -80.5t-125 -30.5zM738 68q32 0 48.5 12t16.5 38q0 23 -16.5 39
t-48.5 16t-48.5 -16t-16.5 -39q0 -26 16.5 -38t48.5 -12zM738 237q24 0 37.5 10t13.5 32q0 20 -13 30t-38 10t-38 -10t-13 -30q0 -22 14 -32t37 -10z" />
    <glyph glyph-name="seveneighths" unicode="&#x215e;" horiz-adv-x="836" 
d="M85 322q0 55 13.5 108.5t38 103.5t58.5 93h-175v83h276v-74q-39 -46 -64 -94t-37 -101.5t-12 -118.5h-98zM86 0l472 710h92l-472 -710h-92zM643 -8q-87 0 -125 30.5t-38 80.5q0 40 23 66.5t67 39.5q-35 11 -54 30.5t-19 56.5q0 47 34 73t112 26t112 -26t34 -73
q0 -37 -19 -56.5t-54 -30.5q44 -14 67 -40.5t23 -65.5q0 -50 -38 -80.5t-125 -30.5zM643 68q32 0 48.5 12t16.5 38q0 23 -16.5 39t-48.5 16t-48.5 -16t-16.5 -39q0 -26 16.5 -38t48.5 -12zM643 237q24 0 37.5 10t13.5 32q0 20 -13 30t-38 10t-38 -10t-13 -30q0 -22 14 -32
t37 -10z" />
    <glyph glyph-name="arrowleft" unicode="&#x2190;" horiz-adv-x="794" 
d="M506 41h-153l-311 311l310 311h153l-310 -310zM752 425v-146h-628v146h628z" />
    <glyph glyph-name="arrowup" unicode="&#x2191;" horiz-adv-x="706" 
d="M664 246l-312 311l-310 -310v153l311 310l311 -311v-153zM280 0v628h146v-628h-146z" />
    <glyph glyph-name="arrowright" unicode="&#x2192;" horiz-adv-x="794" 
d="M288 41l311 312l-310 310h153l310 -311l-311 -311h-153zM42 425h628v-146h-628v146z" />
    <glyph glyph-name="arrowdown" unicode="&#x2193;" horiz-adv-x="706" 
d="M664 464v-153l-311 -311l-311 310v153l310 -310zM280 710h146v-628h-146v628z" />
    <glyph glyph-name="arrowboth" unicode="&#x2194;" horiz-adv-x="1082" 
d="M576 41l311 312l-310 310h153l310 -311l-311 -311h-153zM330 425h628v-146h-628v146zM506 41h-153l-311 311l310 311h153l-310 -310zM752 425v-146h-628v146h628z" />
    <glyph glyph-name="arrowupdn" unicode="&#x2195;" horiz-adv-x="706" 
d="M42 269l312 -311l310 310v-153l-311 -310l-311 311v153zM426 515v-628h-146v628h146zM42 340v153l311 311l311 -310v-153l-310 310zM426 94h-146v628h146v-628z" />
    <glyph glyph-name="uni2196" unicode="&#x2196;" horiz-adv-x="637" 
d="M150 162l-108 108v440l439 1l108 -108h-439v-441zM595 259l-103 -103l-444 444l103 103z" />
    <glyph glyph-name="uni2197" unicode="&#x2197;" horiz-adv-x="637" 
d="M487 162v441h-439l108 108l439 -1v-440zM42 259l444 444l103 -103l-444 -444z" />
    <glyph glyph-name="uni2198" unicode="&#x2198;" horiz-adv-x="639" 
d="M48 109h441v439l108 -108l-1 -439h-440zM145 554l444 -444l-103 -103l-444 444z" />
    <glyph glyph-name="uni2199" unicode="&#x2199;" horiz-adv-x="639" 
d="M591 109l-108 -108h-440l-1 439l108 108v-439h441zM494 554l103 -103l-444 -444l-103 103z" />
    <glyph glyph-name="uni219D" unicode="&#x219d;" horiz-adv-x="647" 
d="M370 173q-23 0 -47.5 10t-43.5 32.5t-28 57.5q-7 34 -16 53.5t-32 19.5q-15 0 -30.5 -14t-23.5 -41h-107q9 48 34.5 83.5t59.5 54.5t69 19q42 0 72.5 -26t41.5 -77q5 -28 15.5 -47.5t32.5 -19.5q16 0 34 16.5t37 49.5l92 -54q-31 -54 -73 -85.5t-87 -31.5zM605 233
l-251 146l229 108z" />
    <glyph glyph-name="uni21A9" unicode="&#x21a9;" horiz-adv-x="660" 
d="M385 230h-270v110h269q35 0 63 15t44.5 41.5t16.5 58.5q0 33 -16.5 59t-44.5 41.5t-63 15.5h-294v108h295q65 0 117.5 -29.5t84 -80.5t31.5 -114t-31.5 -114t-84 -81t-117.5 -30zM348 116h-137l-169 169l167 168h138l-168 -167z" />
    <glyph glyph-name="uni21AA" unicode="&#x21aa;" horiz-adv-x="660" 
d="M275 230q-64 0 -117 30t-84.5 81t-31.5 114t31.5 114t84.5 80.5t117 29.5h295v-108h-294q-34 0 -62.5 -15.5t-45 -41.5t-16.5 -59q0 -32 16.5 -58.5t45 -41.5t62.5 -15h268v-110h-269zM312 116l169 170l-168 167h137l168 -168l-169 -169h-137z" />
    <glyph glyph-name="uni21B0" unicode="&#x21b0;" horiz-adv-x="661" 
d="M507 0v390h-355v110h467v-500h-112zM271 255l-229 190l228 190z" />
    <glyph glyph-name="uni21B1" unicode="&#x21b1;" horiz-adv-x="661" 
d="M153 0h-111v500h467v-110h-356v-390zM389 255l1 380l229 -190z" />
    <glyph glyph-name="uni21B3" unicode="&#x21b3;" horiz-adv-x="661" 
d="M153 710v-390h356v-110h-467v500h111zM389 455l230 -190l-229 -190z" />
    <glyph glyph-name="uni21B4" unicode="&#x21b4;" horiz-adv-x="661" 
d="M385 101v499h-343v110h452v-609h-109zM439 0l-179 216l359 -1z" />
    <glyph glyph-name="carriagereturn" unicode="&#x21b5;" horiz-adv-x="661" 
d="M507 710h112v-500h-467v110h355v390zM271 455l-1 -380l-228 190z" />
    <glyph glyph-name="uni21E4" unicode="&#x21e4;" horiz-adv-x="666" 
d="M375 172l-215 180l214 179zM42 157v390h88v-390h-88zM270 297v109h354v-109h-354z" />
    <glyph glyph-name="uni21E5" unicode="&#x21e5;" horiz-adv-x="666" 
d="M291 172l1 359l214 -179zM624 157h-87v390h87v-390zM396 297h-354v109h354v-109z" />
    <glyph glyph-name="uni21E7" unicode="&#x21e7;" horiz-adv-x="882" 
d="M243 0v313h-224l423 421l421 -421h-221v-313h-399zM351 109h182v296h97l-188 188l-189 -188h98v-296z" />
    <glyph glyph-name="partialdiff" unicode="&#x2202;" horiz-adv-x="569" 
d="M415 247q0 89 -14.5 151t-50 103t-97.5 66.5t-158 40.5l26 116q117 -15 195.5 -53t124.5 -97t66 -137.5t20 -175.5zM278 -11q-74 0 -128 30t-83.5 84t-29.5 126q0 73 28 127t78.5 84t117.5 30q45 0 85 -16.5t73 -42t57 -54.5t37.5 -54.5t13.5 -41.5q0 -86 -31.5 -147
t-87.5 -93t-130 -32zM278 95q33 0 57.5 15.5t38 49.5t13.5 87q0 36 -12.5 62.5t-36 40.5t-56.5 14q-51 0 -78 -36t-27 -99q0 -62 25 -98t76 -36z" />
    <glyph glyph-name="uni2206" unicode="&#x2206;" horiz-adv-x="652" 
d="M19 0v123l239 587h138l237 -586v-124h-614zM141 124h371l-185 463z" />
    <glyph glyph-name="product" unicode="&#x220f;" horiz-adv-x="681" 
d="M121 -150v735h-110v125h659v-125h-106v-735h-148v735h-147v-735h-148z" />
    <glyph glyph-name="summation" unicode="&#x2211;" horiz-adv-x="545" 
d="M27 0v128l152 227l-152 227v128h491v-128h-343l154 -227l-154 -227h343v-128h-491z" />
    <glyph glyph-name="minus" unicode="&#x2212;" horiz-adv-x="544" 
d="M40 226v121h464v-121h-464z" />
    <glyph glyph-name="radical" unicode="&#x221a;" horiz-adv-x="731" 
d="M225 -150l167 860h141l-174 -860h-134zM152 -150l-131 498h141l126 -498h-136zM406 588v122h305v-122h-305z" />
    <glyph glyph-name="infinity" unicode="&#x221e;" horiz-adv-x="843" 
d="M218 85q-53 0 -93 23.5t-62.5 65.5t-22.5 97t22.5 97t62.5 65.5t93 23.5q67 0 117 -28.5t87 -80.5q38 54 86 81.5t118 27.5q54 0 93.5 -24.5t61.5 -66.5t22 -95q0 -52 -21 -94.5t-60.5 -67t-95.5 -24.5q-68 0 -116.5 25.5t-87.5 82.5q-36 -52 -86 -80t-118 -28zM243 192
q38 0 74.5 20.5t57.5 58.5q-22 37 -58.5 58t-73.5 20q-36 0 -58 -22.5t-22 -55.5q0 -36 22 -57.5t58 -21.5zM599 192q37 0 57.5 23t20.5 56t-20.5 55t-57.5 22q-37 2 -73.5 -19t-59.5 -59q15 -24 36 -42t46.5 -27t50.5 -9z" />
    <glyph glyph-name="integral" unicode="&#x222b;" horiz-adv-x="452" 
d="M101 -150h-88l13 121h43q26 0 39.5 11.5t17.5 43.5l62 542q8 65 50.5 104t110.5 38l90 -1l-13 -120h-37q-28 0 -43.5 -14.5t-18.5 -40.5l-63 -542q-7 -65 -50.5 -103.5t-112.5 -38.5z" />
    <glyph glyph-name="approxequal" unicode="&#x2248;" horiz-adv-x="523" 
d="M344 130q-31 0 -53 10.5t-46 36.5q-16 18 -25.5 26.5t-16 11t-15.5 2.5q-20 0 -30.5 -20.5t-10.5 -61.5h-107q0 84 37.5 132.5t102.5 48.5q32 0 54.5 -12t45.5 -37q21 -24 31.5 -31t24.5 -7q21 0 30.5 20.5t9.5 61.5h107q0 -84 -37.5 -132.5t-101.5 -48.5zM344 350
q-31 0 -53 10.5t-46 36.5q-16 18 -25.5 26.5t-16 11t-15.5 2.5q-20 0 -30.5 -20.5t-10.5 -61.5h-107q0 84 37.5 132.5t102.5 48.5q32 0 54.5 -12t45.5 -37q21 -24 31.5 -31t24.5 -7q21 0 30.5 20.5t9.5 61.5h107q0 -84 -37.5 -132.5t-101.5 -48.5z" />
    <glyph glyph-name="notequal" unicode="&#x2260;" horiz-adv-x="552" 
d="M139 22l156 543h118l-156 -543h-118zM40 347v122h472v-122h-472zM40 117v121h472v-121h-472z" />
    <glyph glyph-name="lessequal" unicode="&#x2264;" horiz-adv-x="557" 
d="M507 0h-467v106h467v-106zM507 134l-460 146v155l460 146v-124l-399 -116v33l399 -117v-123z" />
    <glyph glyph-name="greaterequal" unicode="&#x2265;" horiz-adv-x="557" 
d="M50 0v106h467v-106h-467zM50 134v123l399 117v-33l-399 116v124l460 -146v-155z" />
    <glyph glyph-name="uni23CE" unicode="&#x23ce;" horiz-adv-x="903" 
d="M437 -94l-395 396l395 395v-229h91v242h333v-574h-424v-230zM345 140v100h411v365h-123v-241h-288v99l-162 -161z" />
    <glyph glyph-name="uni240B" unicode="&#x240b;" horiz-adv-x="600" 
d="M149 300l-101 330h62l90 -304h-39l89 304h62l-101 -330h-62zM398 71v272h-91v58h241v-58h-91v-272h-59z" />
    <glyph glyph-name="uni240C" unicode="&#x240c;" horiz-adv-x="600" 
d="M327 71v330h208v-58h-184l39 39v-151l-39 28h175v-58h-175l39 33v-163h-63zM75 300v330h208v-58h-184l39 39v-151l-39 28h175v-58h-175l39 33v-163h-63z" />
    <glyph glyph-name="uni2460" unicode="&#x2460;" horiz-adv-x="841" 
d="M420 -26q-79 0 -148.5 29.5t-122.5 82.5t-82.5 122.5t-29.5 149.5q0 79 29.5 148.5t82.5 122t122.5 82t148.5 29.5q80 0 149.5 -29.5t122.5 -82t82.5 -122t29.5 -148.5q0 -80 -29.5 -149.5t-82.5 -122.5t-122.5 -82.5t-149.5 -29.5zM420 58q62 0 116.5 23.5t95.5 64.5
t64 95t23 117q0 62 -23 116t-64 94.5t-95.5 64t-116.5 23.5t-116 -23.5t-95 -64t-64 -94.5t-23 -116q0 -63 23 -117t64 -95t95 -64.5t116 -23.5zM392 160v223l-103 -1v74h28q46 0 69.5 25t23.5 66h81v-387h-99z" />
    <glyph glyph-name="uni2461" unicode="&#x2461;" horiz-adv-x="841" 
d="M420 -26q-79 0 -148.5 29.5t-122.5 82.5t-82.5 122.5t-29.5 149.5q0 79 29.5 148.5t82.5 122t122.5 82t148.5 29.5q80 0 149.5 -29.5t122.5 -82t82.5 -122t29.5 -148.5q0 -80 -29.5 -149.5t-82.5 -122.5t-122.5 -82.5t-149.5 -29.5zM420 58q62 0 116.5 23.5t95.5 64.5
t64 95t23 117q0 62 -23 116t-64 94.5t-95.5 64t-116.5 23.5t-116 -23.5t-95 -64t-64 -94.5t-23 -116q0 -63 23 -117t64 -95t95 -64.5t116 -23.5zM279 160q0 54 8 89t31 60t66 46l47 24q17 8 26 15t13.5 16.5t4.5 24.5q0 20 -13 32t-37 12q-27 0 -41 -13t-19 -44l-90 5
q7 61 45.5 94.5t103.5 33.5q73 0 107 -33t34 -85q0 -46 -23.5 -74t-68.5 -50l-45 -22q-27 -13 -37 -25t-10 -23h185v-83h-287z" />
    <glyph glyph-name="uni2462" unicode="&#x2462;" horiz-adv-x="841" 
d="M420 -26q-79 0 -148.5 29.5t-122.5 82.5t-82.5 122.5t-29.5 149.5q0 79 29.5 148.5t82.5 122t122.5 82t148.5 29.5q80 0 149.5 -29.5t122.5 -82t82.5 -122t29.5 -148.5q0 -80 -29.5 -149.5t-82.5 -122.5t-122.5 -82.5t-149.5 -29.5zM420 58q62 0 116.5 23.5t95.5 64.5
t64 95t23 117q0 62 -23 116t-64 94.5t-95.5 64t-116.5 23.5t-116 -23.5t-95 -64t-64 -94.5t-23 -116q0 -63 23 -117t64 -95t95 -64.5t116 -23.5zM423 152q-60 0 -93.5 13t-48.5 38.5t-18 62.5l98 4q2 -19 16.5 -30.5t45.5 -11.5q28 0 44.5 12.5t16.5 35.5q0 22 -16 35
t-49 13h-31v68h31q23 0 36.5 11t13.5 30q0 22 -11.5 34t-39.5 12q-24 0 -38 -11.5t-16 -31.5l-97 5q6 55 42 84.5t109 29.5q79 0 113.5 -29t34.5 -75q0 -35 -18.5 -57t-54.5 -31q47 -9 68 -32.5t21 -60.5q0 -51 -39.5 -84.5t-119.5 -33.5z" />
    <glyph glyph-name="uni2463" unicode="&#x2463;" horiz-adv-x="841" 
d="M420 -26q-79 0 -148.5 29.5t-122.5 82.5t-82.5 122.5t-29.5 149.5q0 79 29.5 148.5t82.5 122t122.5 82t148.5 29.5q80 0 149.5 -29.5t122.5 -82t82.5 -122t29.5 -148.5q0 -80 -29.5 -149.5t-82.5 -122.5t-122.5 -82.5t-149.5 -29.5zM420 58q62 0 116.5 23.5t95.5 64.5
t64 95t23 117q0 62 -23 116t-64 94.5t-95.5 64t-116.5 23.5t-116 -23.5t-95 -64t-64 -94.5t-23 -116q0 -63 23 -117t64 -95t95 -64.5t116 -23.5zM420 160v76h-182v71l173 240h108v-234h49v-77h-49v-76h-99zM331 313h89v116z" />
    <glyph glyph-name="uni2464" unicode="&#x2464;" horiz-adv-x="841" 
d="M420 -26q-79 0 -148.5 29.5t-122.5 82.5t-82.5 122.5t-29.5 149.5q0 79 29.5 148.5t82.5 122t122.5 82t148.5 29.5q80 0 149.5 -29.5t122.5 -82t82.5 -122t29.5 -148.5q0 -80 -29.5 -149.5t-82.5 -122.5t-122.5 -82.5t-149.5 -29.5zM420 58q62 0 116.5 23.5t95.5 64.5
t64 95t23 117q0 62 -23 116t-64 94.5t-95.5 64t-116.5 23.5t-116 -23.5t-95 -64t-64 -94.5t-23 -116q0 -63 23 -117t64 -95t95 -64.5t116 -23.5zM421 152q-76 0 -112.5 29t-41.5 80l98 5q3 -19 17.5 -28.5t38.5 -9.5q31 0 45 17t14 45t-14.5 44.5t-40.5 16.5q-23 0 -36.5 -9
t-22.5 -23h-92l30 228h250v-77h-168l-9 -76q11 11 28.5 17t43.5 6q65 0 97 -34.5t32 -92.5q0 -63 -40.5 -100.5t-116.5 -37.5z" />
    <glyph glyph-name="uni2465" unicode="&#x2465;" horiz-adv-x="841" 
d="M420 -26q-79 0 -148.5 29.5t-122.5 82.5t-82.5 122.5t-29.5 149.5q0 79 29.5 148.5t82.5 122t122.5 82t148.5 29.5q80 0 149.5 -29.5t122.5 -82t82.5 -122t29.5 -148.5q0 -80 -29.5 -149.5t-82.5 -122.5t-122.5 -82.5t-149.5 -29.5zM420 58q62 0 116.5 23.5t95.5 64.5
t64 95t23 117q0 62 -23 116t-64 94.5t-95.5 64t-116.5 23.5t-116 -23.5t-95 -64t-64 -94.5t-23 -116q0 -63 23 -117t64 -95t95 -64.5t116 -23.5zM422 152q-75 0 -118 45.5t-43 140.5q0 65 19 113.5t58.5 76t100.5 27.5t97 -25.5t45 -72.5l-88 -11q-3 17 -18 26t-39 9
q-35 0 -55 -23t-24 -69q11 14 31.5 24t51.5 10q65 0 103.5 -33.5t38.5 -100.5q0 -64 -43.5 -100.5t-116.5 -36.5zM425 228q30 0 48 17t18 46q0 31 -17.5 47t-48.5 16q-18 0 -33 -7.5t-22.5 -21.5t-8.5 -33q-1 -30 17 -47t47 -17z" />
    <glyph glyph-name="uni2466" unicode="&#x2466;" horiz-adv-x="841" 
d="M420 -26q-79 0 -148.5 29.5t-122.5 82.5t-82.5 122.5t-29.5 149.5q0 79 29.5 148.5t82.5 122t122.5 82t148.5 29.5q80 0 149.5 -29.5t122.5 -82t82.5 -122t29.5 -148.5q0 -80 -29.5 -149.5t-82.5 -122.5t-122.5 -82.5t-149.5 -29.5zM420 58q62 0 116.5 23.5t95.5 64.5
t64 95t23 117q0 62 -23 116t-64 94.5t-95.5 64t-116.5 23.5t-116 -23.5t-95 -64t-64 -94.5t-23 -116q0 -63 23 -117t64 -95t95 -64.5t116 -23.5zM352 160q0 55 13.5 108.5t38 103.5t58.5 93h-175v83h276v-74q-39 -46 -64 -94t-37 -101.5t-12 -118.5h-98z" />
    <glyph glyph-name="uni2467" unicode="&#x2467;" horiz-adv-x="841" 
d="M420 -26q-79 0 -148.5 29.5t-122.5 82.5t-82.5 122.5t-29.5 149.5q0 79 29.5 148.5t82.5 122t122.5 82t148.5 29.5q80 0 149.5 -29.5t122.5 -82t82.5 -122t29.5 -148.5q0 -80 -29.5 -149.5t-82.5 -122.5t-122.5 -82.5t-149.5 -29.5zM420 58q62 0 116.5 23.5t95.5 64.5
t64 95t23 117q0 62 -23 116t-64 94.5t-95.5 64t-116.5 23.5t-116 -23.5t-95 -64t-64 -94.5t-23 -116q0 -63 23 -117t64 -95t95 -64.5t116 -23.5zM423 152q-87 0 -125 30.5t-38 80.5q0 40 23 66.5t67 39.5q-35 11 -54 30.5t-19 56.5q0 47 34 73t112 26t112 -26t34 -73
q0 -37 -19 -56.5t-54 -30.5q44 -14 67 -40.5t23 -65.5q0 -50 -38 -80.5t-125 -30.5zM423 228q32 0 48.5 12t16.5 38q0 23 -16.5 39t-48.5 16t-48.5 -16t-16.5 -39q0 -26 16.5 -38t48.5 -12zM423 397q24 0 37.5 10t13.5 32q0 20 -13 30t-38 10t-38 -10t-13 -30q0 -22 14 -32
t37 -10z" />
    <glyph glyph-name="uni2468" unicode="&#x2468;" horiz-adv-x="841" 
d="M420 -26q-79 0 -148.5 29.5t-122.5 82.5t-82.5 122.5t-29.5 149.5q0 79 29.5 148.5t82.5 122t122.5 82t148.5 29.5q80 0 149.5 -29.5t122.5 -82t82.5 -122t29.5 -148.5q0 -80 -29.5 -149.5t-82.5 -122.5t-122.5 -82.5t-149.5 -29.5zM420 58q62 0 116.5 23.5t95.5 64.5
t64 95t23 117q0 62 -23 116t-64 94.5t-95.5 64t-116.5 23.5t-116 -23.5t-95 -64t-64 -94.5t-23 -116q0 -63 23 -117t64 -95t95 -64.5t116 -23.5zM427 555q76 0 119 -45.5t43 -140.5q0 -65 -19 -113.5t-58.5 -76t-100.5 -27.5q-62 0 -97.5 25.5t-45.5 72.5l89 11
q3 -16 18 -25.5t39 -9.5q34 0 54.5 23t24.5 69q-10 -13 -30.5 -23.5t-52.5 -10.5q-66 0 -104 34t-38 100q0 64 43.5 100.5t115.5 36.5zM425 479q-30 0 -48 -17t-18 -46q0 -31 17.5 -47t48.5 -16q19 0 33 7.5t22.5 21.5t8.5 33q1 30 -17 47t-47 17z" />
    <glyph glyph-name="uni24EA" unicode="&#x24ea;" horiz-adv-x="841" 
d="M420 -26q-79 0 -148.5 29.5t-122.5 82.5t-82.5 122.5t-29.5 149.5q0 79 29.5 148.5t82.5 122t122.5 82t148.5 29.5q80 0 149.5 -29.5t122.5 -82t82.5 -122t29.5 -148.5q0 -80 -29.5 -149.5t-82.5 -122.5t-122.5 -82.5t-149.5 -29.5zM420 58q62 0 116.5 23.5t95.5 64.5
t64 95t23 117q0 62 -23 116t-64 94.5t-95.5 64t-116.5 23.5t-116 -23.5t-95 -64t-64 -94.5t-23 -116q0 -63 23 -117t64 -95t95 -64.5t116 -23.5zM422 152q-80 0 -126.5 53.5t-46.5 148.5t46 148t127 53q82 0 128 -53t46 -148t-46 -148.5t-128 -53.5zM422 229q39 0 57 31
t18 94t-18 93.5t-57 30.5q-38 0 -56.5 -30t-18.5 -94q0 -59 20 -92t55 -33zM374 219l-34 51l131 219l34 -50z" />
    <glyph glyph-name="uni24FF" unicode="&#x24ff;" horiz-adv-x="812" 
d="M408 152q81 0 127 53.5t46 148.5t-46 148t-127 53q-82 0 -128 -53t-46 -148t46.5 -148.5t127.5 -53.5zM408 229q-21 0 -36 11l104 174q7 -24 7 -60q0 -63 -18.5 -94t-56.5 -31zM340 294q-4 12 -5.5 27.5t-1.5 32.5q0 64 18.5 94t56.5 30q21 0 36 -10zM406 -12
q-76 0 -143 28.5t-118 79.5t-79.5 118t-28.5 144q0 76 28.5 142.5t79.5 117.5t118 79.5t143 28.5q77 0 143.5 -28.5t117.5 -79.5t79.5 -117.5t28.5 -142.5q0 -77 -28.5 -144t-79.5 -118t-117.5 -79.5t-143.5 -28.5z" />
    <glyph glyph-name="triagup" unicode="&#x25b2;" horiz-adv-x="857" 
d="M19 0l409 710l410 -710h-819z" />
    <glyph glyph-name="uni25B3" unicode="&#x25b3;" horiz-adv-x="857" 
d="M19 0l409 710l410 -710h-819zM214 123h429l-216 383z" />
    <glyph glyph-name="uni25B6" unicode="&#x25b6;" horiz-adv-x="803" 
d="M74 -1v713l710 -356z" />
    <glyph glyph-name="uni25B7" unicode="&#x25b7;" horiz-adv-x="803" 
d="M74 -1v713l710 -356zM178 169l372 187l-372 186v-373z" />
    <glyph glyph-name="triagdn" unicode="&#x25bc;" horiz-adv-x="805" 
d="M-7 710h819l-410 -710z" />
    <glyph glyph-name="uni25BD" unicode="&#x25bd;" horiz-adv-x="805" 
d="M-7 710h819l-410 -710zM188 587l213 -383l216 383h-429z" />
    <glyph glyph-name="uni25C0" unicode="&#x25c0;" horiz-adv-x="809" 
d="M735 -1l-710 357l710 356v-713z" />
    <glyph glyph-name="uni25C1" unicode="&#x25c1;" horiz-adv-x="809" 
d="M735 -1l-710 357l710 356v-713zM630 169v373l-371 -186z" />
    <glyph glyph-name="lozenge" unicode="&#x25ca;" horiz-adv-x="595" 
d="M240 0l170 322l-170 322h144l169 -322l-169 -322h-144zM211 0l-169 322l169 322h144l-170 -322l170 -322h-144z" />
    <glyph glyph-name="circle" unicode="&#x25cb;" horiz-adv-x="838" 
d="M419 -12q-80 0 -148.5 27.5t-120 77t-80 116.5t-28.5 147q0 81 28.5 148.5t80 117t120 77t148.5 27.5t148.5 -27.5t120 -77t80 -117t28.5 -148.5q0 -80 -28.5 -147t-80 -116.5t-120 -77t-148.5 -27.5zM419 106q54 0 100.5 18.5t81.5 52.5t54 79.5t19 99.5q0 55 -19 101
t-54 80t-81.5 52.5t-100.5 18.5t-100.5 -18.5t-81 -52.5t-54 -80t-19.5 -101q0 -54 19.5 -99.5t54 -79.5t81 -52.5t100.5 -18.5z" />
    <glyph glyph-name="uni25CC" unicode="&#x25cc;" horiz-adv-x="838" 
d="M686 114l-61 61q10 11 19 21.5t16 22.5l73 -48q-20 -30 -47 -57zM217 58q-30 19 -58 45l60 63q10 -9 21 -18t23 -17zM110 158q-10 15 -19.5 31.5t-17.5 32.5l81 35q5 -13 12.5 -25t14.5 -23zM355 5q-19 4 -37 8.5t-35 11.5l32 81q13 -5 27 -9t28 -7zM50 293q-8 37 -8 73
l87 1q0 -15 1.5 -28.5t5.5 -27.5zM419 5v86q14 0 28 1.5t29 3.5l16 -84q-18 -3 -36 -5t-37 -2zM135 424l-86 15q6 38 21 71l81 -32q-6 -13 -10 -27t-6 -27zM563 33l-33 80q14 6 26.5 13t23.5 14l48 -72q-15 -10 -31.5 -18.5t-33.5 -16.5zM178 527l-73 48q20 30 47 57l62 -61
q-10 -11 -19 -21.5t-17 -22.5zM258 606l-48 72q15 11 31.5 19.5t33.5 15.5l33 -80q-13 -6 -26 -12.5t-24 -14.5zM768 236l-80 32q5 14 9.5 27.5t6.5 26.5l85 -15q-6 -38 -21 -71zM363 650l-17 84q18 3 36 5t37 2v-86q-14 0 -28 -1.5t-28 -3.5zM709 379q0 15 -1.5 29t-4.5 27
l85 18q8 -37 8 -73zM524 640q-13 5 -27 9t-28 7l14 85q19 -4 37 -8.5t35 -11.5zM685 489q-5 13 -12.5 25t-15.5 23l71 51q11 -15 20.5 -31t16.5 -33zM620 580q-11 10 -22 19t-23 16l46 73q30 -19 58 -45z" />
    <glyph glyph-name="uni25CF" unicode="&#x25cf;" horiz-adv-x="838" 
d="M419 -12q-80 0 -148.5 27.5t-120 77t-80 116.5t-28.5 147q0 81 28.5 148.5t80 117t120 77t148.5 27.5t148.5 -27.5t120 -77t80 -117t28.5 -148.5q0 -80 -28.5 -147t-80 -116.5t-120 -77t-148.5 -27.5z" />
    <glyph glyph-name="uni2639" unicode="&#x2639;" horiz-adv-x="841" 
d="M230 212q12 48 39.5 83t67 54.5t87.5 19.5q49 0 89 -19.5t67 -54.5t39 -83h-84q-14 38 -42.5 59t-67.5 21q-40 0 -68.5 -21t-42.5 -59h-84zM328 406q-23 0 -39 16t-16 39q0 22 16 37.5t39 15.5q21 0 37 -15.5t16 -37.5q0 -23 -15.5 -39t-37.5 -16zM523 406q-23 0 -39 16
t-16 39q0 22 16 37.5t39 15.5q22 0 37.5 -15.5t15.5 -37.5q0 -23 -15.5 -39t-37.5 -16zM420 -26q-79 0 -148.5 29.5t-122.5 82.5t-82.5 122.5t-29.5 149.5q0 79 29.5 148.5t82.5 122t122.5 82t148.5 29.5q80 0 149.5 -29.5t122.5 -82t82.5 -122t29.5 -148.5
q0 -80 -29.5 -149.5t-82.5 -122.5t-122.5 -82.5t-149.5 -29.5zM420 58q62 0 116.5 23.5t95.5 64.5t64 95.5t23 116.5t-23 116t-64 94.5t-95.5 64t-116.5 23.5t-116 -23.5t-95 -64t-64 -94.5t-23 -116q0 -63 23 -117t64 -95t95 -64.5t116 -23.5z" />
    <glyph glyph-name="smileface" unicode="&#x263a;" horiz-adv-x="841" 
d="M424 167q-55 0 -101 24.5t-76 66.5t-38 96h78q12 -48 50 -79.5t88 -31.5q49 0 87.5 31.5t48.5 79.5h79q-8 -54 -38.5 -96t-76.5 -66.5t-101 -24.5zM328 406q-23 0 -39 16t-16 39q0 22 16 37.5t39 15.5q21 0 37 -15.5t16 -37.5q0 -23 -15.5 -39t-37.5 -16zM523 406
q-23 0 -39 16t-16 39q0 22 16 37.5t39 15.5q22 0 37.5 -15.5t15.5 -37.5q0 -23 -15.5 -39t-37.5 -16zM420 -26q-79 0 -148.5 29.5t-122.5 82.5t-82.5 122.5t-29.5 149.5q0 79 29.5 148.5t82.5 122t122.5 82t148.5 29.5q80 0 149.5 -29.5t122.5 -82t82.5 -122t29.5 -148.5
q0 -80 -29.5 -149.5t-82.5 -122.5t-122.5 -82.5t-149.5 -29.5zM420 58q62 0 116.5 23.5t95.5 64.5t64 95.5t23 116.5t-23 116t-64 94.5t-95.5 64t-116.5 23.5t-116 -23.5t-95 -64t-64 -94.5t-23 -116q0 -63 23 -117t64 -95t95 -64.5t116 -23.5z" />
    <glyph glyph-name="uni2776" unicode="&#x2776;" horiz-adv-x="812" 
d="M381 160h98v387h-81q0 -41 -23.5 -66t-69.5 -25h-28v-74l104 1v-223zM406 -12q-76 0 -143 28.5t-118 79.5t-79.5 118t-28.5 144q0 76 28.5 142.5t79.5 117.5t118 79.5t143 28.5q77 0 143.5 -28.5t117.5 -79.5t79.5 -117.5t28.5 -142.5q0 -77 -28.5 -144t-79.5 -118
t-117.5 -79.5t-143.5 -28.5z" />
    <glyph glyph-name="uni2777" unicode="&#x2777;" horiz-adv-x="812" 
d="M269 160h287v83h-185q0 11 10 23t37 25l45 22q45 22 68.5 50t23.5 74q0 52 -34 85t-107 33q-65 0 -103.5 -33.5t-45.5 -94.5l90 -5q5 31 19 44t41 13q24 0 37 -12t13 -32q0 -15 -4.5 -24.5t-13.5 -16.5t-26 -15l-47 -24q-43 -21 -66 -46t-31 -60t-8 -89zM406 -12
q-76 0 -143 28.5t-118 79.5t-79.5 118t-28.5 144q0 76 28.5 142.5t79.5 117.5t118 79.5t143 28.5q77 0 143.5 -28.5t117.5 -79.5t79.5 -117.5t28.5 -142.5q0 -77 -28.5 -144t-79.5 -118t-117.5 -79.5t-143.5 -28.5z" />
    <glyph glyph-name="uni2778" unicode="&#x2778;" horiz-adv-x="812" 
d="M411 152q80 0 119.5 33.5t39.5 84.5q0 37 -21 60.5t-68 32.5q37 9 55 31t18 57q0 46 -34.5 75t-113.5 29q-73 0 -109 -29.5t-42 -84.5l97 -5q2 20 16.5 31.5t37.5 11.5q28 0 40 -12t12 -34q0 -19 -14 -30t-37 -11h-31v-68h31q33 0 49 -13t16 -35q0 -23 -16.5 -35.5
t-44.5 -12.5q-31 0 -45.5 11.5t-16.5 30.5l-98 -4q3 -37 18 -62.5t49 -38.5t93 -13zM406 -12q-76 0 -143 28.5t-118 79.5t-79.5 118t-28.5 144q0 76 28.5 142.5t79.5 117.5t118 79.5t143 28.5q77 0 143.5 -28.5t117.5 -79.5t79.5 -117.5t28.5 -142.5q0 -77 -28.5 -144
t-79.5 -118t-117.5 -79.5t-143.5 -28.5z" />
    <glyph glyph-name="uni2779" unicode="&#x2779;" horiz-adv-x="812" 
d="M410 160h98v76h49v77h-49v234h-107l-174 -240v-71h183v-76zM320 313l90 116v-116h-90zM406 -12q-76 0 -143 28.5t-118 79.5t-79.5 118t-28.5 144q0 76 28.5 142.5t79.5 117.5t118 79.5t143 28.5q77 0 143.5 -28.5t117.5 -79.5t79.5 -117.5t28.5 -142.5q0 -77 -28.5 -144
t-79.5 -118t-117.5 -79.5t-143.5 -28.5z" />
    <glyph glyph-name="uni277A" unicode="&#x277a;" horiz-adv-x="812" 
d="M409 152q76 0 116.5 37.5t40.5 100.5q0 58 -32 92.5t-98 34.5q-25 0 -42.5 -6t-29.5 -17l10 76h168v77h-251l-29 -228h92q8 14 21.5 23t37.5 9q26 0 40.5 -16.5t14.5 -44.5t-14 -45t-46 -17q-23 0 -37.5 9.5t-18.5 28.5l-97 -5q5 -51 41.5 -80t112.5 -29zM406 -12
q-76 0 -143 28.5t-118 79.5t-79.5 118t-28.5 144q0 76 28.5 142.5t79.5 117.5t118 79.5t143 28.5q77 0 143.5 -28.5t117.5 -79.5t79.5 -117.5t28.5 -142.5q0 -77 -28.5 -144t-79.5 -118t-117.5 -79.5t-143.5 -28.5z" />
    <glyph glyph-name="uni277B" unicode="&#x277b;" horiz-adv-x="812" 
d="M411 152q72 0 115.5 36.5t43.5 100.5q0 67 -38 100.5t-104 33.5q-31 0 -51.5 -10t-31.5 -24q4 46 24.5 69t54.5 23q24 0 39 -9t18 -26l89 11q-10 47 -45.5 72.5t-97.5 25.5q-60 0 -100 -27.5t-59 -76t-19 -113.5q0 -95 43 -140.5t119 -45.5zM413 228q-29 0 -47 17t-17 47
q1 19 9 33t22.5 21.5t32.5 7.5q31 0 48.5 -16t17.5 -47q0 -29 -18 -46t-48 -17zM406 -12q-76 0 -143 28.5t-118 79.5t-79.5 118t-28.5 144q0 76 28.5 142.5t79.5 117.5t118 79.5t143 28.5q77 0 143.5 -28.5t117.5 -79.5t79.5 -117.5t28.5 -142.5q0 -77 -28.5 -144
t-79.5 -118t-117.5 -79.5t-143.5 -28.5z" />
    <glyph glyph-name="uni277C" unicode="&#x277c;" horiz-adv-x="812" 
d="M340 160h98q0 65 12 118.5t37 101.5t64 94v74h-276v-83h175q-34 -43 -58.5 -93t-38 -103.5t-13.5 -108.5zM406 -12q-76 0 -143 28.5t-118 79.5t-79.5 118t-28.5 144q0 76 28.5 142.5t79.5 117.5t118 79.5t143 28.5q77 0 143.5 -28.5t117.5 -79.5t79.5 -117.5t28.5 -142.5
q0 -77 -28.5 -144t-79.5 -118t-117.5 -79.5t-143.5 -28.5z" />
    <glyph glyph-name="uni277D" unicode="&#x277d;" horiz-adv-x="812" 
d="M411 152q87 0 125 30.5t38 80.5q0 39 -23 65.5t-67 40.5q35 11 54 30.5t19 56.5q0 47 -34 73t-112 26t-112 -26t-34 -73q0 -37 19 -56.5t54 -30.5q-44 -13 -67 -39.5t-23 -66.5q0 -50 38 -80.5t125 -30.5zM411 228q-32 0 -48.5 12t-16.5 38q0 23 16.5 39t48.5 16
t48.5 -16t16.5 -39q0 -26 -16.5 -38t-48.5 -12zM411 397q-23 0 -37 10t-14 32q0 20 13 30t38 10t38 -10t13 -30q0 -22 -13.5 -32t-37.5 -10zM406 -12q-76 0 -143 28.5t-118 79.5t-79.5 118t-28.5 144q0 76 28.5 142.5t79.5 117.5t118 79.5t143 28.5q77 0 143.5 -28.5
t117.5 -79.5t79.5 -117.5t28.5 -142.5q0 -77 -28.5 -144t-79.5 -118t-117.5 -79.5t-143.5 -28.5z" />
    <glyph glyph-name="uni277E" unicode="&#x277e;" horiz-adv-x="812" 
d="M413 555q-73 0 -116.5 -36.5t-43.5 -100.5q0 -66 38.5 -100t103.5 -34q32 0 52.5 10.5t30.5 23.5q-4 -46 -24 -69t-55 -23q-24 0 -38.5 9.5t-18.5 25.5l-88 -11q9 -47 45 -72.5t97 -25.5t100.5 27.5t58.5 76t19 113.5q0 95 -43 140.5t-118 45.5zM410 479q29 0 47 -17
t17 -47q0 -19 -8 -33t-22.5 -21.5t-33.5 -7.5q-31 0 -48.5 16t-17.5 47q0 29 18 46t48 17zM406 -12q-76 0 -143 28.5t-118 79.5t-79.5 118t-28.5 144q0 76 28.5 142.5t79.5 117.5t118 79.5t143 28.5q77 0 143.5 -28.5t117.5 -79.5t79.5 -117.5t28.5 -142.5q0 -77 -28.5 -144
t-79.5 -118t-117.5 -79.5t-143.5 -28.5z" />
    <glyph glyph-name="uni3003" unicode="&#x3003;" horiz-adv-x="397" 
d="M37 281l62 200h112l-92 -200h-82zM186 281l62 200h112l-91 -200h-83z" />
    <glyph glyph-name="uni3008" unicode="&#x3008;" horiz-adv-x="393" 
d="M207 -114l-170 468l170 467h149l-170 -467l170 -468h-149z" />
    <glyph glyph-name="uni3009" unicode="&#x3009;" horiz-adv-x="393" 
d="M186 -114h-149l170 468l-170 467h149l170 -467z" />
    <glyph glyph-name="uni300A" unicode="&#x300a;" horiz-adv-x="631" 
d="M207 -114l-170 468l170 467h149l-170 -467l170 -468h-149zM445 -114l-170 468l170 467h149l-170 -467l170 -468h-149z" />
    <glyph glyph-name="uni300B" unicode="&#x300b;" horiz-adv-x="631" 
d="M423 -114h-148l169 468l-169 467h148l171 -467zM186 -114h-149l170 468l-170 467h149l170 -467z" />
    <glyph glyph-name="uni300C" unicode="&#x300c;" horiz-adv-x="380" 
d="M37 234v592h307v-96h-209v-496h-98z" />
    <glyph glyph-name="uni300D" unicode="&#x300d;" horiz-adv-x="380" 
d="M344 489v-592h-307v96h208v496h99z" />
    <glyph glyph-name="uni300E" unicode="&#x300e;" horiz-adv-x="377" 
d="M37 233v593h303v-160h-143v-433h-160zM82 277h71v433h143v72h-214v-505z" />
    <glyph glyph-name="uni300F" unicode="&#x300f;" horiz-adv-x="377" 
d="M340 496v-593h-303v160h143v433h160zM295 452h-71v-433h-143v-72h214v505z" />
    <glyph glyph-name="uni3010" unicode="&#x3010;" horiz-adv-x="357" 
d="M320 -63h-283v888h283q-129 -215 -129 -444q0 -227 129 -444z" />
    <glyph glyph-name="uni3011" unicode="&#x3011;" horiz-adv-x="357" 
d="M37 -63q129 217 129 444q0 229 -129 444h283v-888h-283z" />
    <glyph glyph-name="uni3014" unicode="&#x3014;" horiz-adv-x="389" 
d="M288 -146l-251 226v547l249 223l64 -70l-215 -192v-469l217 -195z" />
    <glyph glyph-name="uni3015" unicode="&#x3015;" horiz-adv-x="389" 
d="M101 -146l-64 70l217 195v469l-215 192l64 70l249 -223v-547z" />
    <glyph glyph-name="uni3016" unicode="&#x3016;" horiz-adv-x="373" 
d="M337 -63h-300v888h300q-129 -215 -129 -444q0 -227 129 -444zM243 -10q-46 98 -69 196.5t-23 195.5q0 98 23 195.5t69 194.5h-149v-782h149z" />
    <glyph glyph-name="uni3017" unicode="&#x3017;" horiz-adv-x="373" 
d="M37 -63q129 217 129 444q0 229 -129 444h300v-888h-300zM131 -10h148v782h-148q46 -97 69 -194.5t23 -195.5q0 -97 -23 -195.5t-69 -196.5z" />
    <glyph glyph-name="uni301C" unicode="&#x301c;" horiz-adv-x="865" 
d="M596 183q-36 0 -63 7t-55 20.5t-66 33.5q-36 20 -69.5 31.5t-70.5 11.5q-43 0 -82.5 -22t-84.5 -64l-68 97q46 42 84 67.5t75.5 36.5t78.5 11q38 0 80.5 -13.5t89.5 -39.5q36 -18 60.5 -29.5t45 -16.5t45.5 -5q28 0 51.5 7.5t50 25.5t61.5 49l69 -97q-58 -56 -117 -83.5
t-115 -27.5z" />
    <glyph glyph-name="uniA78B" unicode="&#xa78b;" horiz-adv-x="226" 
d="M55 330l-13 240v140h142v-140l-13 -240h-116z" />
    <glyph glyph-name="uniA78C" unicode="&#xa78c;" horiz-adv-x="266" 
d="M79 350l-13 260v100h134v-100l-13 -260h-108z" />
    <glyph glyph-name="uniF8FF" unicode="&#xf8ff;" horiz-adv-x="600" 
d="M105 0q-42 0 -69.5 27.5t-27.5 69.5v390q0 42 27.5 69.5t69.5 27.5h390q42 0 69.5 -27.5t27.5 -69.5v-390q0 -42 -27.5 -69.5t-69.5 -27.5h-390zM86 124h427l-214 371z" />
    <glyph glyph-name="uni004A0301" horiz-adv-x="627" 
d="M309 -16q-83 0 -140.5 35t-88 95.5t-31.5 138.5l153 7q1 -76 29 -112t78 -36q51 0 79 35t28 108v455h152v-455q0 -83 -32.5 -144t-90.5 -94t-136 -33zM424 765l59 148h145l-90 -148h-114z" />
    <glyph glyph-name="uni013B.loclMAH" horiz-adv-x="589" 
d="M74 0v710h152v-669l-84 87h411v-128h-479zM232 -253l52 88h-35v116h130v-105l-59 -99h-88z" />
    <glyph glyph-name="uni0145.loclMAH" horiz-adv-x="750" 
d="M74 0v710h168l282 -490v490h152v-710h-170l-280 473v-473h-152zM289 -253l52 88h-35v116h130v-105l-59 -99h-88z" />
    <glyph glyph-name="R.ss04" horiz-adv-x="709" 
d="M74 0v710h284q131 0 202 -59t71 -166q0 -68 -33 -121t-99 -76l159 -288h-164l-138 261h-5h-4h-121v-261h-152zM226 387h123q58 0 92.5 24.5t34.5 72.5q0 49 -34.5 73.5t-92.5 24.5h-123v-195z" />
    <glyph glyph-name="Racute.ss04" horiz-adv-x="709" 
d="M74 0v710h284q131 0 202 -59t71 -166q0 -68 -33 -121t-99 -76l159 -288h-164l-138 261h-5h-4h-121v-261h-152zM226 387h123q58 0 92.5 24.5t34.5 72.5q0 49 -34.5 73.5t-92.5 24.5h-123v-195zM274 765l59 148h145l-90 -148h-114z" />
    <glyph glyph-name="Rcaron.ss04" horiz-adv-x="709" 
d="M74 0v710h284q131 0 202 -59t71 -166q0 -68 -33 -121t-99 -76l159 -288h-164l-138 261h-5h-4h-121v-261h-152zM226 387h123q58 0 92.5 24.5t34.5 72.5q0 49 -34.5 73.5t-92.5 24.5h-123v-195zM174 918h105l78 -109h-30l78 109h105l-96 -153h-144z" />
    <glyph glyph-name="uni0156.ss04" horiz-adv-x="709" 
d="M74 0v710h284q131 0 202 -59t71 -166q0 -68 -33 -121t-99 -76l159 -288h-164l-138 261h-5h-4h-121v-261h-152zM226 387h123q58 0 92.5 24.5t34.5 72.5q0 49 -34.5 73.5t-92.5 24.5h-123v-195zM260 -253l52 88h-35v116h130v-105l-59 -99h-88z" />
    <glyph glyph-name="I.ss05" horiz-adv-x="472" 
d="M42 0v128h118v454h-112v128h376v-128h-112v-454h118v-128h-388z" />
    <glyph glyph-name="Iacute.ss05" horiz-adv-x="472" 
d="M42 0v128h118v454h-112v128h376v-128h-112v-454h118v-128h-388zM168 765l59 148h145l-90 -148h-114z" />
    <glyph glyph-name="Icircumflex.ss05" horiz-adv-x="472" 
d="M42 0v128h118v454h-112v128h376v-128h-112v-454h118v-128h-388zM68 765l96 153h144l96 -153h-105l-78 110h30l-78 -110h-105z" />
    <glyph glyph-name="Idieresis.ss05" horiz-adv-x="472" 
d="M42 0v128h118v454h-112v128h376v-128h-112v-454h118v-128h-388zM57 773v121h143v-121h-143zM272 773v121h143v-121h-143z" />
    <glyph glyph-name="Idotaccent.ss05" horiz-adv-x="472" 
d="M42 0v128h118v454h-112v128h376v-128h-112v-454h118v-128h-388zM158 776v120h155v-120h-155z" />
    <glyph glyph-name="Igrave.ss05" horiz-adv-x="472" 
d="M42 0v128h118v454h-112v128h376v-128h-112v-454h118v-128h-388zM188 772l-90 147h145l59 -147h-114z" />
    <glyph glyph-name="Imacron.ss05" horiz-adv-x="472" 
d="M42 0v128h118v454h-112v128h376v-128h-112v-454h118v-128h-388zM86 781v110h299v-110h-299z" />
    <glyph glyph-name="Iogonek.ss05" horiz-adv-x="472" 
d="M42 0v128h118v454h-112v128h376v-128h-112v-454h118v-128h-388zM360 -217q-54 0 -83.5 22t-29.5 63q0 31 15.5 59.5t34.5 52.5l33 44l100 -24l-30 -40q-15 -20 -23.5 -35t-8.5 -28q0 -12 7.5 -18.5t18.5 -6.5q13 0 25 4t20 9l28 -76q-14 -11 -44.5 -18.5t-62.5 -7.5z" />
    <glyph glyph-name="Itilde.ss05" horiz-adv-x="472" 
d="M42 0v128h118v454h-112v128h376v-128h-112v-454h118v-128h-388zM292 774q-23 0 -40 7t-36 23q-11 9 -19.5 13.5t-19.5 4.5q-15 0 -25.5 -11t-12.5 -42h-75q1 65 30 103.5t80 38.5q24 0 43 -7t39 -23q12 -9 20.5 -13.5t17.5 -4.5q16 0 26 11.5t12 43.5h74
q-1 -66 -30.5 -105t-83.5 -39z" />
    <glyph glyph-name="G.ss06" horiz-adv-x="728" 
d="M381 -16q-112 0 -187.5 48.5t-113.5 132.5t-38 189q0 106 40 190t116.5 133t186.5 49q129 0 206 -66.5t98 -182.5l-157 -7q-7 39 -24.5 68t-48 44.5t-77.5 15.5q-63 0 -104 -32t-60 -87t-19 -125q0 -71 19.5 -125.5t59.5 -85.5t100 -31q50 0 86 18.5t55.5 51.5t22.5 76
h-162v111h311v-42q0 -114 -37.5 -190t-107.5 -114.5t-165 -38.5z" />
    <glyph glyph-name="Gbreve.ss06" horiz-adv-x="728" 
d="M381 -16q-112 0 -187.5 48.5t-113.5 132.5t-38 189q0 106 40 190t116.5 133t186.5 49q129 0 206 -66.5t98 -182.5l-157 -7q-7 39 -24.5 68t-48 44.5t-77.5 15.5q-63 0 -104 -32t-60 -87t-19 -125q0 -71 19.5 -125.5t59.5 -85.5t100 -31q50 0 86 18.5t55.5 51.5t22.5 76
h-162v111h311v-42q0 -114 -37.5 -190t-107.5 -114.5t-165 -38.5zM382 766q-70 0 -112 38.5t-45 108.5h87q3 -34 21.5 -49.5t48.5 -15.5t48 15.5t21 49.5h87q-3 -70 -45 -108.5t-111 -38.5z" />
    <glyph glyph-name="Gcircumflex.ss06" horiz-adv-x="728" 
d="M381 -16q-112 0 -187.5 48.5t-113.5 132.5t-38 189q0 106 40 190t116.5 133t186.5 49q129 0 206 -66.5t98 -182.5l-157 -7q-7 39 -24.5 68t-48 44.5t-77.5 15.5q-63 0 -104 -32t-60 -87t-19 -125q0 -71 19.5 -125.5t59.5 -85.5t100 -31q50 0 86 18.5t55.5 51.5t22.5 76
h-162v111h311v-42q0 -114 -37.5 -190t-107.5 -114.5t-165 -38.5zM213 765l96 153h144l96 -153h-105l-78 110h30l-78 -110h-105z" />
    <glyph glyph-name="uni0122.ss06" horiz-adv-x="728" 
d="M381 -16q-112 0 -187.5 48.5t-113.5 132.5t-38 189q0 106 40 190t116.5 133t186.5 49q129 0 206 -66.5t98 -182.5l-157 -7q-7 39 -24.5 68t-48 44.5t-77.5 15.5q-63 0 -104 -32t-60 -87t-19 -125q0 -71 19.5 -125.5t59.5 -85.5t100 -31q50 0 86 18.5t55.5 51.5t22.5 76
h-162v111h311v-42q0 -114 -37.5 -190t-107.5 -114.5t-165 -38.5zM302 -253l52 88h-35v116h130v-105l-59 -99h-88z" />
    <glyph glyph-name="Gdotaccent.ss06" horiz-adv-x="728" 
d="M381 -16q-112 0 -187.5 48.5t-113.5 132.5t-38 189q0 106 40 190t116.5 133t186.5 49q129 0 206 -66.5t98 -182.5l-157 -7q-7 39 -24.5 68t-48 44.5t-77.5 15.5q-63 0 -104 -32t-60 -87t-19 -125q0 -71 19.5 -125.5t59.5 -85.5t100 -31q50 0 86 18.5t55.5 51.5t22.5 76
h-162v111h311v-42q0 -114 -37.5 -190t-107.5 -114.5t-165 -38.5zM304 776v120h155v-120h-155z" />
    <glyph glyph-name="uni1E20.ss06" horiz-adv-x="728" 
d="M381 -16q-112 0 -187.5 48.5t-113.5 132.5t-38 189q0 106 40 190t116.5 133t186.5 49q129 0 206 -66.5t98 -182.5l-157 -7q-7 39 -24.5 68t-48 44.5t-77.5 15.5q-63 0 -104 -32t-60 -87t-19 -125q0 -71 19.5 -125.5t59.5 -85.5t100 -31q50 0 86 18.5t55.5 51.5t22.5 76
h-162v111h311v-42q0 -114 -37.5 -190t-107.5 -114.5t-165 -38.5zM232 781v110h299v-110h-299z" />
    <glyph glyph-name="Adieresis.ss08" horiz-adv-x="730" 
d="M19 0l256 710h180l256 -710h-158l-52 151h-273l-52 -151h-157zM271 276h188l-94 274zM260 765q-34 0 -53.5 19t-19.5 52q0 34 19.5 53t53.5 19t53.5 -19t19.5 -53q0 -33 -19.5 -52t-53.5 -19zM470 765q-34 0 -53.5 19t-19.5 52q0 34 19.5 53t53.5 19t53.5 -19t19.5 -53
q0 -33 -19.5 -52t-53.5 -19z" />
    <glyph glyph-name="Cdotaccent.ss08" horiz-adv-x="734" 
d="M375 -16q-97 0 -172.5 44t-118 127t-42.5 199q0 113 41 196.5t117 129.5t178 46q139 0 216.5 -68.5t99.5 -195.5l-158 -6q-12 67 -52 104.5t-106 37.5q-57 0 -97 -30t-61 -85t-21 -129q0 -75 21.5 -129.5t61.5 -83.5t95 -29q72 0 111.5 40.5t49.5 112.5l159 -6
q-14 -87 -55 -148t-107.5 -94t-159.5 -33zM377 765q-33 0 -54 19t-21 52q0 34 21 53t54 19q34 0 55 -19t21 -53q0 -33 -21 -52t-55 -19z" />
    <glyph glyph-name="Edieresis.ss08" horiz-adv-x="622" 
d="M74 0v710h494v-128h-342v-163h330v-126h-330v-165h350v-128h-502zM217 765q-34 0 -53.5 19t-19.5 52q0 34 19.5 53t53.5 19t53.5 -19t19.5 -53q0 -33 -19.5 -52t-53.5 -19zM427 765q-34 0 -53.5 19t-19.5 52q0 34 19.5 53t53.5 19t53.5 -19t19.5 -53q0 -33 -19.5 -52
t-53.5 -19z" />
    <glyph glyph-name="Edotaccent.ss08" horiz-adv-x="622" 
d="M74 0v710h494v-128h-342v-163h330v-126h-330v-165h350v-128h-502zM322 765q-33 0 -54 19t-21 52q0 34 21 53t54 19q34 0 55 -19t21 -53q0 -33 -21 -52t-55 -19z" />
    <glyph glyph-name="Gdotaccent.ss08" horiz-adv-x="738" 
d="M370 -16q-103 0 -176 47t-112.5 130.5t-39.5 192.5q0 107 40 191t115.5 132.5t181.5 48.5q92 0 155.5 -30.5t101.5 -86.5t53 -132l-157 -7q-11 59 -46.5 93.5t-105.5 34.5q-61 0 -101.5 -32t-60 -87t-19.5 -125q0 -71 19.5 -125.5t60 -85.5t104.5 -31q47 0 81.5 19t54 52
t23.5 75h-162v111h311v-369h-94l-8 152l18 -8q-10 -47 -44 -83t-83.5 -56.5t-109.5 -20.5zM380 765q-33 0 -54 19t-21 52q0 34 21 53t54 19q34 0 55 -19t21 -53q0 -33 -21 -52t-55 -19z" />
    <glyph glyph-name="Idieresis.ss08" horiz-adv-x="300" 
d="M74 0v710h152v-710h-152zM45 765q-34 0 -53.5 19t-19.5 52q0 34 19.5 53t53.5 19t53.5 -19t19.5 -53q0 -33 -19.5 -52t-53.5 -19zM255 765q-34 0 -53.5 19t-19.5 52q0 34 19.5 53t53.5 19t53.5 -19t19.5 -53q0 -33 -19.5 -52t-53.5 -19z" />
    <glyph glyph-name="Idotaccent.ss08" horiz-adv-x="300" 
d="M74 0v710h152v-710h-152zM150 765q-33 0 -54 19t-21 52q0 34 21 53t54 19q34 0 55 -19t21 -53q0 -33 -21 -52t-55 -19z" />
    <glyph glyph-name="Odieresis.ss08" horiz-adv-x="776" 
d="M388 -16q-108 0 -185.5 45t-119 128t-41.5 197t41.5 197.5t119 129t185.5 45.5t185.5 -45.5t119 -129t41.5 -197.5t-41.5 -197t-119 -128t-185.5 -45zM387 112q60 0 102.5 28.5t65 82.5t22.5 131t-22.5 131.5t-65 83.5t-102.5 29q-59 0 -101 -29t-64.5 -83.5
t-22.5 -131.5t22.5 -131t65 -82.5t100.5 -28.5zM283 765q-34 0 -53.5 19t-19.5 52q0 34 19.5 53t53.5 19t53.5 -19t19.5 -53q0 -33 -19.5 -52t-53.5 -19zM493 765q-34 0 -53.5 19t-19.5 52q0 34 19.5 53t53.5 19t53.5 -19t19.5 -53q0 -33 -19.5 -52t-53.5 -19z" />
    <glyph glyph-name="Udieresis.ss08" horiz-adv-x="703" 
d="M352 -16q-90 0 -155.5 33t-101.5 94.5t-36 144.5v455h152v-455q0 -69 36.5 -106.5t104.5 -37.5t104 37.5t36 106.5v455h152v-455q0 -83 -35.5 -144.5t-101.5 -94.5t-155 -33zM247 765q-34 0 -53.5 19t-19.5 52q0 34 19.5 53t53.5 19t53.5 -19t19.5 -53q0 -33 -19.5 -52
t-53.5 -19zM457 765q-34 0 -53.5 19t-19.5 52q0 34 19.5 53t53.5 19t53.5 -19t19.5 -53q0 -33 -19.5 -52t-53.5 -19z" />
    <glyph glyph-name="Wdieresis.ss08" horiz-adv-x="1015" 
d="M229 0l-192 710h159l122 -500l123 500h133l124 -500l121 500h159l-191 -710h-164l-116 454l-116 -454h-162zM402 765q-34 0 -53.5 19t-19.5 52q0 34 19.5 53t53.5 19t53.5 -19t19.5 -53q0 -33 -19.5 -52t-53.5 -19zM612 765q-34 0 -53.5 19t-19.5 52q0 34 19.5 53
t53.5 19t53.5 -19t19.5 -53q0 -33 -19.5 -52t-53.5 -19z" />
    <glyph glyph-name="Ydieresis.ss08" horiz-adv-x="631" 
d="M240 0v276l-247 434h168l155 -286l154 286h168l-246 -434v-276h-152zM211 765q-34 0 -53.5 19t-19.5 52q0 34 19.5 53t53.5 19t53.5 -19t19.5 -53q0 -33 -19.5 -52t-53.5 -19zM421 765q-34 0 -53.5 19t-19.5 52q0 34 19.5 53t53.5 19t53.5 -19t19.5 -53q0 -33 -19.5 -52
t-53.5 -19z" />
    <glyph glyph-name="Zdotaccent.ss08" horiz-adv-x="594" 
d="M27 0v124l338 458h-322v128h511v-124l-345 -458h358v-128h-540zM306 765q-33 0 -54 19t-21 52q0 34 21 53t54 19q34 0 55 -19t21 -53q0 -33 -21 -52t-55 -19z" />
    <glyph glyph-name="Idieresis.ss05.ss08" horiz-adv-x="472" 
d="M42 0v128h118v454h-112v128h376v-128h-112v-454h118v-128h-388zM131 765q-34 0 -53.5 19t-19.5 52q0 34 19.5 53t53.5 19t53.5 -19t19.5 -53q0 -33 -19.5 -52t-53.5 -19zM341 765q-34 0 -53.5 19t-19.5 52q0 34 19.5 53t53.5 19t53.5 -19t19.5 -53q0 -33 -19.5 -52
t-53.5 -19z" />
    <glyph glyph-name="Idotaccent.ss05.ss08" horiz-adv-x="472" 
d="M42 0v128h118v454h-112v128h376v-128h-112v-454h118v-128h-388zM236 765q-33 0 -54 19t-21 52q0 34 21 53t54 19q34 0 55 -19t21 -53q0 -33 -21 -52t-55 -19z" />
    <glyph glyph-name="Gdotaccent.ss06.ss08" horiz-adv-x="728" 
d="M381 -16q-112 0 -187.5 48.5t-113.5 132.5t-38 189q0 106 40 190t116.5 133t186.5 49q129 0 206 -66.5t98 -182.5l-157 -7q-7 39 -24.5 68t-48 44.5t-77.5 15.5q-63 0 -104 -32t-60 -87t-19 -125q0 -71 19.5 -125.5t59.5 -85.5t100 -31q50 0 86 18.5t55.5 51.5t22.5 76
h-162v111h311v-42q0 -114 -37.5 -190t-107.5 -114.5t-165 -38.5zM381 765q-33 0 -54 19t-21 52q0 34 21 53t54 19q34 0 55 -19t21 -53q0 -33 -21 -52t-55 -19z" />
    <glyph glyph-name="A_I.dlig" horiz-adv-x="1202" 
d="M19 0l256 710h180l256 -710h-158l-52 151h-273l-52 -151h-157zM271 276h188l-94 274zM772 0v128h118v454h-112v128h376v-128h-112v-454h118v-128h-388z" />
    <glyph glyph-name="U_I.dlig" horiz-adv-x="1176" 
d="M352 -16q-90 0 -155.5 33t-101.5 94.5t-36 144.5v455h152v-455q0 -69 36.5 -106.5t104.5 -37.5t104 37.5t36 106.5v455h152v-455q0 -83 -35.5 -144.5t-101.5 -94.5t-155 -33zM745 0v128h118v454h-112v128h376v-128h-112v-454h118v-128h-388z" />
    <glyph glyph-name="i.loclTRK" horiz-adv-x="281" 
d="M66 0v536h150v-536h-150zM63 602v120h155v-120h-155z" />
    <glyph glyph-name="uni006A0301" horiz-adv-x="331" 
d="M-3 -150v112h59q30 0 44.5 12t14.5 48v514h151v-518q0 -90 -40.5 -129t-138.5 -39h-90zM123 591l59 148h145l-90 -148h-114z" />
    <glyph glyph-name="uni013C.loclMAH" horiz-adv-x="313" 
d="M206 0q-66 0 -103 33t-37 107v570h150v-554q0 -24 11 -34t32 -10h36v-112h-89zM84 -253l52 88h-35v116h130v-105l-59 -99h-88z" />
    <glyph glyph-name="uni0146.loclMAH" horiz-adv-x="611" 
d="M66 0v536h135l6 -157l-19 5q8 60 32.5 96t61.5 52t81 16q58 0 98.5 -25t62 -70.5t21.5 -107.5v-345h-150v295q0 43 -7 73t-25 45.5t-50 15.5q-47 0 -72 -34.5t-25 -99.5v-295h-150zM223 -253l52 88h-35v116h130v-105l-59 -99h-88z" />
    <glyph glyph-name="a.ss01" horiz-adv-x="596" 
d="M220 -12q-84 0 -136 38.5t-52 107.5q0 71 44.5 109.5t131.5 56.5l173 34q0 52 -23.5 78.5t-67.5 26.5q-43 0 -67 -19.5t-31 -57.5l-151 7q15 88 79.5 133.5t169.5 45.5q120 0 180.5 -57t60.5 -167v-324h-128l-8 129l14 -8q-9 -39 -34 -69t-64 -47t-91 -17zM256 91
q37 0 65 14.5t44 42.5t16 66v26l-122 -26q-36 -7 -54.5 -23.5t-18.5 -42.5q0 -27 18 -42t52 -15z" />
    <glyph glyph-name="aacute.ss01" horiz-adv-x="596" 
d="M220 -12q-84 0 -136 38.5t-52 107.5q0 71 44.5 109.5t131.5 56.5l173 34q0 52 -23.5 78.5t-67.5 26.5q-43 0 -67 -19.5t-31 -57.5l-151 7q15 88 79.5 133.5t169.5 45.5q120 0 180.5 -57t60.5 -167v-324h-128l-8 129l14 -8q-9 -39 -34 -69t-64 -47t-91 -17zM256 91
q37 0 65 14.5t44 42.5t16 66v26l-122 -26q-36 -7 -54.5 -23.5t-18.5 -42.5q0 -27 18 -42t52 -15zM219 591l59 148h145l-90 -148h-114z" />
    <glyph glyph-name="abreve.ss01" horiz-adv-x="596" 
d="M220 -12q-84 0 -136 38.5t-52 107.5q0 71 44.5 109.5t131.5 56.5l173 34q0 52 -23.5 78.5t-67.5 26.5q-43 0 -67 -19.5t-31 -57.5l-151 7q15 88 79.5 133.5t169.5 45.5q120 0 180.5 -57t60.5 -167v-324h-128l-8 129l14 -8q-9 -39 -34 -69t-64 -47t-91 -17zM256 91
q37 0 65 14.5t44 42.5t16 66v26l-122 -26q-36 -7 -54.5 -23.5t-18.5 -42.5q0 -27 18 -42t52 -15zM288 592q-70 0 -112 38.5t-45 108.5h87q3 -34 21.5 -49.5t48.5 -15.5t48 15.5t21 49.5h87q-3 -70 -45 -108.5t-111 -38.5z" />
    <glyph glyph-name="uni01CE.ss01" horiz-adv-x="596" 
d="M220 -12q-84 0 -136 38.5t-52 107.5q0 71 44.5 109.5t131.5 56.5l173 34q0 52 -23.5 78.5t-67.5 26.5q-43 0 -67 -19.5t-31 -57.5l-151 7q15 88 79.5 133.5t169.5 45.5q120 0 180.5 -57t60.5 -167v-324h-128l-8 129l14 -8q-9 -39 -34 -69t-64 -47t-91 -17zM256 91
q37 0 65 14.5t44 42.5t16 66v26l-122 -26q-36 -7 -54.5 -23.5t-18.5 -42.5q0 -27 18 -42t52 -15zM119 744h105l78 -109h-30l78 109h105l-96 -153h-144z" />
    </font>
</defs>
</svg>
